<?xml version="1.0" standalone="no"?>
<!DOCTYPE svg PUBLIC "-//W3C//DTD SVG 1.1//EN" "http://www.w3.org/Graphics/SVG/1.1/DTD/svg11.dtd" >
<svg xmlns="http://www.w3.org/2000/svg">
<metadata>
<json>
<![CDATA[
{
	"fontFamily": "matomo",
	"majorVersion": 1,
	"minorVersion": 0,
	"fontURL": "https://matomo.org",
	"description": "Matomo\nFont generated by IcoMoon.",
	"version": "Version 1.0",
	"fontId": "matomo",
	"psName": "matomo",
	"subFamily": "Regular",
	"fullName": "matomo"
}
]]>
</json>
</metadata>
<defs>
<font id="matomo" horiz-adv-x="1024">
<font-face units-per-em="1024" ascent="960" descent="-64" />
<missing-glyph horiz-adv-x="1024" />
<glyph unicode="&#x20;" horiz-adv-x="512" d="" />
<glyph unicode="&#xe01f;" glyph-name="fast-forward" data-tags="fast_forward" d="M557.5 704l394.333-277.333-394.333-277.333v554.667zM141.5 149.334v554.667l394.333-277.333z" />
<glyph unicode="&#xe020;" glyph-name="fast-rewind" data-tags="fast_rewind" d="M488.167 426.667l394.333 277.333v-554.667zM466.5 149.334l-394.333 277.333 394.333 277.333v-554.667z" />
<glyph unicode="&#xe035;" glyph-name="pause" data-tags="pause_circle_filled" d="M665.84 222.348v408.639h-103.362v-408.639h103.362zM461.521 222.348v408.639h-103.362v-408.639h103.362zM512 938.667c283.643 0 512-228.357 512-512s-228.357-512-512-512-512 228.357-512 512 228.357 512 512 512z" />
<glyph unicode="&#xe038;" glyph-name="play" data-tags="play_circle_filled" d="M408.639 195.907l307.681 230.76-307.681 230.76v-461.521zM512 938.667c283.643 0 512-228.357 512-512s-228.357-512-512-512-512 228.357-512 512 228.357 512 512 512z" />
<glyph unicode="&#xe042;" glyph-name="replay" data-tags="replay" d="M512 709.515c206.638 0 375.906-167.070 375.906-373.708s-169.268-375.906-375.906-375.906-375.906 169.268-375.906 375.906h94.525c0-156.079 125.3-281.38 281.38-281.38s281.38 125.3 281.38 281.38-125.3 281.38-281.38 281.38v-189.053l-235.216 235.216 235.216 235.216v-189.053z" />
<glyph unicode="&#xe044;" glyph-name="skip-next" data-tags="skip_next" d="M710.334 725.333h100.334v-597.334h-100.334v597.334zM213.334 128.001v597.334l422.334-298.666z" />
<glyph unicode="&#xe045;" glyph-name="skip-previous" data-tags="skip_previous" d="M388.332 426.667l422.33 298.668v-597.33zM213.332 725.335h100.331v-597.33h-100.331v597.33z" />
<glyph unicode="&#xe047;" glyph-name="stop" data-tags="stop" d="M213.334 725.333h597.334v-597.334h-597.334v597.334z" />
<glyph unicode="&#xe050;" glyph-name="audio" data-tags="volume_up" d="M598 800.667c172-38 298-192 298-374s-126-336-298-374v88c124 36 212 150 212 286s-88 250-212 286v88zM704 426.667c0-76-42-140-106-172v344c64-32 106-96 106-172zM128 554.667h170l214 214v-684l-214 214h-170v256z" />
<glyph unicode="&#xe0cb;" glyph-name="overlay" data-tags="chat_bubble_outline" d="M854 256.667v512h-684v-598l86 86h598zM854 852.667c46 0 84-38 84-84v-512c0-46-38-86-84-86h-598l-170-170v768c0 46 38 84 84 84h684z" />
<glyph unicode="&#xe2c6;" glyph-name="upload" data-tags="file_upload" d="M143.948 110.487h736.108v-106.216h-736.108v106.216zM353.912 216.703v316.18h-209.964l368.052 368.052 368.052-368.052h-209.964v-316.18h-316.18z" />
<glyph unicode="&#xe600;" glyph-name="alien" data-tags="ico-alien" d="M576 896c0-35.346-28.654-64-64-64s-64 28.654-64 64c0 35.346 28.654 64 64 64s64-28.654 64-64zM480 864h64v-128h-64v128zM897.024-64h-770.048c-70.144 0-126.976 56.832-126.976 126.976v0c0 70.144 56.832 126.976 126.976 126.976h769.984c70.144 0 126.976-56.832 126.976-126.976v0c0.064-70.144-56.768-126.976-126.912-126.976zM512 768c-194.432 0-352-157.568-352-352v-160h704v160c0 194.432-157.568 352-352 352zM384 352c-52.992 0-96 43.008-96 96s43.008 96 96 96 96-43.008 96-96-43.008-96-96-96zM640 352c-52.992 0-96 43.008-96 96s43.008 96 96 96 96-43.008 96-96-43.008-96-96-96z" />
<glyph unicode="&#xe601;" glyph-name="annotation" data-tags="ico-annotation" d="M736 704h-448c-17.664 0-32-14.336-32-32s14.336-32 32-32h448c17.664 0 32 14.336 32 32s-14.336 32-32 32zM736 576h-448c-17.664 0-32-14.336-32-32s14.336-32 32-32h448c17.664 0 32 14.336 32 32s-14.336 32-32 32zM608 448h-320c-17.664 0-32-14.336-32-32s14.336-32 32-32h320c17.664 0 32 14.336 32 32s-14.336 32-32 32zM832 960h-640c-106.048 0-192-85.952-192-192v-448c0-106.048 85.952-192 192-192h320l195.2-184.32c25.024-18.816 60.8-0.896 60.8 30.4v153.92h64c106.048 0 192 85.952 192 192v448c0 106.048-85.952 192-192 192zM896 320c0-35.264-28.736-64-64-64h-640c-35.264 0-64 28.736-64 64v448c0 35.264 28.736 64 64 64h640c35.264 0 64-28.736 64-64v-448z" />
<glyph unicode="&#xe602;" glyph-name="arrow-left" data-tags="ico-arrow-left" d="M704 736v-576l-321.024 286.976z" />
<glyph unicode="&#xe603;" glyph-name="arrow-right" data-tags="ico-arrow-right" d="M414.976 768v-576l321.024 286.976z" />
<glyph unicode="&#xe604;" glyph-name="business" data-tags="ico-business" d="M1024 640c0 35.328-28.672 64-64 64h-80.832l-36.608 118.912c-23.808 72.448-91.008 121.088-167.232 121.088h-326.656c-76.224 0-143.424-48.64-167.232-121.024l-35.072-106.624-0.256-12.352h-82.112c-35.328 0-64-28.672-64-64v-96c0-3.712 1.472-6.912 2.112-10.432-1.024-8-2.112-15.936-2.112-24.256v-74.112c112.128-88.896 295.296-147.2 502.4-147.2 219.456 0 412.032 65.408 521.6 163.456v57.856c0 8.256-1.024 16.32-2.112 24.32 0.64 3.52 2.112 6.72 2.112 10.368v96zM640 701.312v-189.312c0-70.4-57.6-128-128-128s-128 57.6-128 128v189.312h-139.84l28.544 91.648c10.816 32.96 41.28 55.040 75.968 55.040h326.656c34.688 0 65.216-22.080 76.032-55.040l30.144-91.648h-141.504zM576 512c0-35.346-28.654-64-64-64s-64 28.654-64 64c0 35.346 28.654 64 64 64s64-28.654 64-64zM0 359.232v-231.232c0-7.296 1.344-14.208 2.176-21.312-0.64-3.584-2.176-6.912-2.176-10.688v-96c0-35.328 28.672-64 64-64h96c3.776 0 7.104 1.536 10.688 2.176 7.104-0.832 14.016-2.176 21.312-2.176h640c7.296 0 14.208 1.344 21.312 2.176 3.584-0.64 6.912-2.176 10.688-2.176h96c35.328 0 64 28.672 64 64v96c0 3.776-1.536 7.104-2.176 10.688 0.832 7.104 2.176 14.016 2.176 21.312v244.096c-125.12-90.432-312.448-148.096-521.6-148.096-198.976 0-377.664 52.352-502.4 135.232z" />
<glyph unicode="&#xe605;" glyph-name="calendar" data-tags="ico-calendar" d="M320 384v0c-35.328 0-64 28.672-64 64v0c0 35.328 28.672 64 64 64v0c35.328 0 64-28.672 64-64v0c0-35.328-28.672-64-64-64zM512 384v0c-35.328 0-64 28.672-64 64v0c0 35.328 28.672 64 64 64v0c35.328 0 64-28.672 64-64v0c0-35.328-28.672-64-64-64zM704 384v0c-35.328 0-64 28.672-64 64v0c0 35.328 28.672 64 64 64v0c35.328 0 64-28.672 64-64v0c0-35.328-28.672-64-64-64zM320 192v0c-35.328 0-64 28.672-64 64v0c0 35.328 28.672 64 64 64v0c35.328 0 64-28.672 64-64v0c0-35.328-28.672-64-64-64zM512 192v0c-35.328 0-64 28.672-64 64v0c0 35.328 28.672 64 64 64v0c35.328 0 64-28.672 64-64v0c0-35.328-28.672-64-64-64zM704 192v0c-35.328 0-64 28.672-64 64v0c0 35.328 28.672 64 64 64v0c35.328 0 64-28.672 64-64v0c0-35.328-28.672-64-64-64zM832 896v64h-128v-64h-384v64h-128v-64c-106.048 0-192-85.952-192-192v-576c0-106.048 85.952-192 192-192h640c106.048 0 192 85.952 192 192v576c0 106.048-85.952 192-192 192zM896 128c0-35.264-28.736-64-64-64h-640c-35.264 0-64 28.736-64 64v512h768v-512z" />
<glyph unicode="&#xe606;" glyph-name="chart-bar" data-tags="ico-chart-bar" d="M864-64v0c-52.8 0-96 43.2-96 96v288c0 52.8 43.2 96 96 96v0c52.8 0 96-43.2 96-96v-288c0-52.8-43.2-96-96-96zM480-64v0c-52.8 0-96 43.2-96 96v576c0 52.8 43.2 96 96 96v0c52.8 0 96-43.2 96-96v-576c0-52.8-43.2-96-96-96zM96-64v0c-52.8 0-96 43.2-96 96v832c0 52.8 43.2 96 96 96v0c52.8 0 96-43.2 96-96v-832c0-52.8-43.2-96-96-96z" />
<glyph unicode="&#xe607;" glyph-name="chart-line-details" data-tags="ico-chart-line-details" d="M832 960h-640c-106.048 0-192-85.952-192-192v-640c0-106.048 85.952-192 192-192h640c106.048 0 192 85.952 192 192v640c0 106.048-85.952 192-192 192zM896 128c0-35.264-28.736-64-64-64h-640c-35.264 0-64 28.736-64 64v208.32c29.888 13.504 77.312 38.4 154.304 80.32 33.152-57.472 94.528-96.64 165.696-96.64 36.544 0 70.4 10.752 99.456 28.544l143.296-143.296c17.664-17.664 46.336-17.664 64 0v0c17.664 17.664 17.664 46.336 0 64l-143.296 143.296c3.776 6.208 7.040 12.672 10.176 19.264l126.528-56.256 147.84 232.256v-479.808zM320 512c0 70.592 57.408 128 128 128 66.944 0 121.408-51.84 126.912-117.376l-128.384 57.088-13.952-7.68c-34.304-18.88-73.28-40.256-112.384-61.76 0 0.576-0.192 1.152-0.192 1.728zM449.472 508.288l113.92-50.624c-20.48-43.392-64.32-73.664-115.392-73.664-46.848 0-87.424 25.536-109.76 63.232 32.832 17.984 69.376 38.016 111.232 61.056zM896 727.040l-172.16-270.592-85.12 37.824c0.576 5.888 1.28 11.712 1.28 17.728 0 106.048-85.952 192-192 192s-192-85.952-192-192c0-11.968 1.408-23.616 3.52-34.944-51.136-28.032-98.688-54.016-131.52-71.808v362.752c0 35.264 28.736 64 64 64h640c35.264 0 64-28.736 64-64v-40.96z" />
<glyph unicode="&#xe608;" glyph-name="chart-line" data-tags="ico-chart-line" d="M832 960h-640c-106.048 0-192-85.952-192-192v-640c0-106.048 85.952-192 192-192h640c106.048 0 192 85.952 192 192v640c0 106.048-85.952 192-192 192zM192 832h640c35.264 0 64-28.736 64-64v-72l-188.992-141.76-128 128-236.928-177.664-68.928 103.424h-145.152v160c0 35.264 28.736 64 64 64zM896 616v-363.968l-263.68 105.536-115.328-115.328-139.328 209.024 195.328 146.496 128-128 195.008 146.24zM290.816 466.112l-162.816-122.112v200h110.848l51.968-77.888zM832 64h-640c-35.264 0-64 28.736-64 64v136l198.336 148.8 180.672-270.976 140.672 140.672 248.32-99.328v-55.168c0-35.264-28.736-64-64-64z" />
<glyph unicode="&#xe609;" glyph-name="chart-pie" data-tags="ico-chart-pie" d="M576 484.224l404.352-242.624c27.904 63.232 43.648 132.928 43.648 206.4 0 261.056-195.52 476.032-448 507.584v-471.36zM448 411.776v543.808c-252.48-31.552-448-246.528-448-507.584 0-282.752 229.248-512 512-512 163.392 0 308.544 76.8 402.304 195.968l-466.304 279.808z" />
<glyph unicode="&#xe60a;" glyph-name="close" data-tags="ico-close" d="M23.552 95.168l841.28 841.28c37.44 37.44 98.176 37.44 135.616 0v0c37.44-37.44 37.44-98.176 0-135.616l-841.28-841.28c-37.44-37.44-98.176-37.44-135.616 0v0c-37.44 37.44-37.44 98.176 0 135.616zM864.64-40.256l-841.28 841.28c-37.44 37.44-37.44 98.176 0 135.616v0c37.44 37.44 98.176 37.44 135.616 0l841.28-841.28c37.44-37.44 37.44-98.176 0-135.616v0c-37.504-37.44-98.176-37.44-135.616 0z" />
<glyph unicode="&#xe60b;" glyph-name="arrow-collapsed" data-tags="ico-collapsed-arrows" d="M734.656 384h-446.656l224-320zM288 512h446.656l-224 320z" />
<glyph unicode="&#xe60c;" glyph-name="configure" data-tags="ico-configure" d="M990.848 385.472v0c-21.184 14.016-33.216 37.248-33.152 61.952 0 0.192 0 0.384 0 0.576s0 0.384 0 0.576c-0.064 24.704 11.968 47.936 33.088 61.888l0.064 0.064c27.136 17.984 39.296 50.752 30.144 81.216-2.88 9.664-6.080 19.264-9.6 28.672-11.072 29.952-40.96 49.6-73.856 48.704v0c-25.6-0.704-49.6 11.264-64.64 31.296-0.192 0.32-0.448 0.576-0.64 0.896-15.104 19.968-19.456 45.632-10.88 68.864v0.064c11.008 29.888 0.96 63.296-25.024 82.816-8.192 6.144-16.64 12.096-25.216 17.792-27.2 18.048-63.424 16.96-89.536-2.432l-0.064-0.064c-19.904-14.784-46.080-19.2-69.888-11.648-1.152 0.384-2.368 0.768-3.52 1.088-24.064 7.36-42.624 25.792-49.728 49.088v0.128c-9.216 30.144-37.248 51.712-69.824 52.736-5.504 0.192-11.008 0.256-16.576 0.256s-11.072-0.064-16.576-0.256c-32.576-1.024-60.608-22.592-69.824-52.736v-0.128c-7.104-23.296-25.664-41.728-49.664-49.088-1.152-0.384-2.304-0.768-3.52-1.152-23.808-7.552-49.984-3.136-69.888 11.648l-0.064 0.064c-26.176 19.456-62.336 20.48-89.536 2.432-8.576-5.696-16.96-11.648-25.216-17.792-25.984-19.456-36.032-52.864-24.96-82.752v-0.064c8.576-23.296 4.16-48.96-10.88-68.864-0.192-0.32-0.448-0.576-0.64-0.896-15.040-20.032-39.040-31.936-64.64-31.296-33.024 0.896-62.912-18.688-73.984-48.704-3.456-9.408-6.656-19.008-9.6-28.672-9.152-30.464 3.008-63.232 30.144-81.216l0.064-0.064c21.12-13.952 33.152-37.184 33.088-61.888 0-0.192 0-0.384 0-0.576s0-0.384 0-0.576c0.064-24.704-11.968-47.936-33.088-61.888l-0.064-0.064c-27.136-17.984-39.296-50.752-30.144-81.216 2.88-9.664 6.080-19.264 9.6-28.672 11.072-29.952 40.96-49.6 73.92-48.704v0c25.6 0.704 49.6-11.264 64.64-31.296 0.192-0.32 0.448-0.576 0.64-0.896 15.104-19.968 19.456-45.632 10.88-68.864v-0.064c-11.008-29.888-0.96-63.296 25.024-82.816 8.192-6.144 16.64-12.096 25.216-17.792 27.2-18.048 63.424-16.96 89.536 2.432l0.064 0.064c19.904 14.784 46.080 19.2 69.888 11.648 1.152-0.384 2.368-0.768 3.52-1.088 24-7.36 42.56-25.856 49.664-49.152l0.064-0.128c9.216-30.144 37.248-51.712 69.824-52.736 5.44-0.128 10.944-0.192 16.512-0.192s11.072 0.064 16.576 0.256c32.576 1.024 60.608 22.528 69.824 52.736v0.128c7.104 23.296 25.664 41.728 49.664 49.152 1.152 0.384 2.368 0.704 3.52 1.088 23.872 7.552 49.984 3.136 69.888-11.648l0.064-0.064c26.176-19.456 62.336-20.48 89.536-2.432 8.576 5.696 17.024 11.584 25.216 17.792 25.984 19.456 36.032 52.864 25.024 82.816v0.064c-8.576 23.296-4.16 48.96 10.88 68.864 0.192 0.32 0.448 0.576 0.64 0.896 15.040 20.032 39.040 31.936 64.64 31.296v0c32.96-0.896 62.848 18.752 73.856 48.704 3.456 9.408 6.656 19.008 9.6 28.672 9.216 30.4-2.944 63.168-30.080 81.152zM512 200.832c-141.376 0-256 110.656-256 247.168s114.624 247.168 256 247.168c141.376 0 256-110.656 256-247.168s-114.624-247.168-256-247.168zM608 448c0-51.181-42.981-92.672-96-92.672s-96 41.491-96 92.672c0 51.181 42.981 92.672 96 92.672s96-41.491 96-92.672z" />
<glyph unicode="&#xe60d;" glyph-name="datepicker-arr-l" data-tags="ico-datepicker-arr-l" d="M672 702.656v-446.656l-320 224z" />
<glyph unicode="&#xe60e;" glyph-name="datepicker-arr-r" data-tags="ico-datepicker-arr-r" d="M416 704v-446.656l320 224z" />
<glyph unicode="&#xe60f;" glyph-name="delete" data-tags="ico-delete" d="M192 0c0-35.328 28.672-64 64-64h512c35.328 0 64 28.672 64 64v576c0 35.328-19.648 64-55.040 64h-520.96c-35.328 0-64-28.672-64-64v-576zM640 896c-20.48 44.544-76.736 64-128 64-51.328 0-107.584-19.456-128-64h-192c-39.36 0-63.488-24.64-63.488-64l-0.512-64c0-39.232 24.64-64 64-64h640c39.232 0 64 24.768 64 64v64c0 39.36-24.768 64-64 64h-192z" />
<glyph unicode="&#xe610;" glyph-name="document" data-tags="ico-document" d="M832 864c52.928 0 96-43.072 96-96v-736h-608v832h512zM832 960h-544c-35.328 0-64-28.672-64-64v-896c0-35.328 28.672-64 64-64h672c35.328 0 64 28.672 64 64v768c0 106.048-85.952 192-192 192v0zM837.312 448h-426.624c-14.72 0-26.688-14.336-26.688-32s11.968-32 26.688-32h426.688c14.72 0 26.688 14.336 26.688 32-0.064 17.664-12.032 32-26.752 32zM837.312 320h-426.624c-14.72 0-26.688-14.336-26.688-32s11.968-32 26.688-32h426.688c14.72 0 26.688 14.336 26.688 32-0.064 17.664-12.032 32-26.752 32zM784 192h-373.312c-14.72 0-26.688-14.336-26.688-32s11.968-32 26.688-32h373.312c14.72 0 26.688 14.336 26.688 32s-11.968 32-26.688 32zM384 768h256v-256h-256v256zM837.312 736h-106.688c-14.656 0-26.624-14.336-26.624-32s11.968-32 26.688-32h106.688c14.72 0 26.688 14.336 26.688 32-0.064 17.664-12.032 32-26.752 32zM837.312 608h-106.688c-14.656 0-26.624-14.336-26.624-32s11.968-32 26.688-32h106.688c14.72 0 26.688 14.336 26.688 32-0.064 17.664-12.032 32-26.752 32z" />
<glyph unicode="&#xe611;" glyph-name="download" data-tags="ico-download" d="M896 224v-96c0-35.328-28.672-64-64-64h-640c-35.328 0-64 28.672-64 64v96c0 35.328-28.672 64-64 64v0c-35.328 0-64-28.672-64-64v-96c0-106.048 85.952-192 192-192h640c106.048 0 192 85.952 192 192v96c0 35.328-28.672 64-64 64v0c-35.328 0-64-28.672-64-64zM544 192v0c-52.992 0-96 43.008-96 96v576c0 52.992 43.008 96 96 96v0c52.992 0 96-43.008 96-96v-576c0-52.992-43.008-96-96-96zM476.096 220.096v0c-37.504 37.504-37.504 98.304 0 135.744l271.552 271.552c37.504 37.504 98.304 37.504 135.744 0v0c37.504-37.504 37.504-98.304 0-135.744l-271.552-271.552c-37.44-37.44-98.24-37.44-135.744 0zM595.392 220.096v0c-37.504-37.504-98.304-37.504-135.744 0l-271.552 271.552c-37.504 37.504-37.504 98.304 0 135.744v0c37.504 37.504 98.304 37.504 135.744 0l271.552-271.552c37.504-37.44 37.504-98.24 0-135.744z" />
<glyph unicode="&#xe612;" glyph-name="drop" data-tags="ico-drop" d="M512.768-61.824c-190.848 0-346.112 148.608-346.112 331.328 0 193.088 263.68 573.376 293.824 616.128l52.288 74.368 52.352-74.432c30.080-42.688 293.696-423.040 293.696-616.128 0-182.656-155.264-331.264-346.048-331.264zM512.768 734.336c-99.84-153.728-218.112-367.68-218.112-464.832 0-112.128 97.856-203.328 218.112-203.328s218.048 91.2 218.048 203.328c0 97.152-118.336 311.040-218.048 464.832zM512 130.176c-54.976 0-95.232 17.792-119.616 52.992-47.104 67.904-10.624 170.752-6.336 182.208 6.208 16.448 24.448 24.896 41.152 18.688 16.512-6.144 24.96-24.576 18.816-41.152-8.448-22.656-24.96-89.024-0.96-123.456 11.904-16.96 33.728-25.28 66.944-25.28 17.664 0 32-14.336 32-32s-14.336-32-32-32z" />
<glyph unicode="&#xe613;" glyph-name="ecommerce-abandoned-cart" data-tags="ico-ecommerce-abandoned" d="M960 512h-640l-32.192 95.488c-4.16 21.568-19.84 39.040-40.768 45.504l-171.008 53.12c-31.36 9.728-64.64-7.808-74.368-39.168s7.808-64.64 39.168-74.368l136.96-42.496 104.384-458.048c3.648-19.392 16.448-35.072 33.408-42.944-0.512-4.096-0.768-8.192-0.768-12.416-0.064-55.488 45.12-100.672 100.672-100.672s100.672 45.184 100.672 100.672c0 2.304-0.128 4.608-0.256 6.912h158.912c-0.128-2.304-0.256-4.544-0.256-6.912 0-55.488 45.184-100.672 100.672-100.672s100.672 45.184 100.672 100.672c0 2.496-0.128 4.928-0.32 7.36 25.408 3.072 46.4 22.272 51.264 48l96.128 314.624c3.264 17.408-14.976 105.344-62.976 105.344zM415.488-12.352c-27.072 0-49.024 22.016-49.024 49.024 0 27.072 22.016 49.024 49.024 49.024 27.072 0 49.024-22.016 49.024-49.024s-22.016-49.024-49.024-49.024v0zM775.232-12.352c-27.072 0-49.024 22.016-49.024 49.024 0 27.072 22.016 49.024 49.024 49.024s49.024-22.016 49.024-49.024c0-27.008-22.016-49.024-49.024-49.024v0zM832 192c-34.688 0-448 0-448 0-19.712 0-19.712 64 0 64h448c19.712 0 34.688-64 0-64zM896 320h-512c-19.712 0-19.712 64 0 64h512c19.712 0 19.712-64 0-64v0zM896 832h-256c-35.328 0-64-28.672-64-64s28.672-64 64-64h256c35.328 0 64 28.672 64 64s-28.672 64-64 64z" />
<glyph unicode="&#xe614;" glyph-name="ecommerce-order" data-tags="ico-ecommerce-order" d="M896 832h-64v64c0 35.328-28.672 64-64 64s-64-28.672-64-64v-64h-64c-35.328 0-64-28.672-64-64s28.672-64 64-64h64v-64c0-35.328 28.672-64 64-64s64 28.672 64 64v64h64c35.328 0 64 28.672 64 64s-28.672 64-64 64zM960 512h-640l-32.192 95.488c-4.16 21.568-19.84 58.048-40.768 64.512l-171.008 32c-31.36 9.728-64.64-5.696-74.368-37.056s7.808-64.64 39.168-74.368l136.96-42.496 104.384-458.048c3.648-19.392 16.448-35.072 33.408-42.944-0.512-4.096-0.768-8.192-0.768-12.416-0.064-55.488 45.12-100.672 100.672-100.672s100.672 45.184 100.672 100.672c0 2.304-0.128 4.608-0.256 6.912h158.912c-0.128-2.304-0.256-4.544-0.256-6.912 0-55.488 45.184-100.672 100.672-100.672s100.672 45.184 100.672 100.672c0 2.496-0.128 4.928-0.32 7.36 25.408 3.072 46.4 22.272 51.264 48l96.128 314.624c3.264 17.408-14.976 105.344-62.976 105.344zM415.488-12.352c-27.072 0-49.024 22.016-49.024 49.024 0 27.072 22.016 49.024 49.024 49.024 27.072 0 49.024-22.016 49.024-49.024s-22.016-49.024-49.024-49.024v0zM775.232-12.352c-27.072 0-49.024 22.016-49.024 49.024 0 27.072 22.016 49.024 49.024 49.024s49.024-22.016 49.024-49.024c0-27.008-22.016-49.024-49.024-49.024v0zM832 192c-34.688 0-448 0-448 0-19.712 0-19.712 64 0 64h448c19.712 0 34.688-64 0-64zM896 320h-512c-19.712 0-19.712 64 0 64h512c19.712 0 19.712-64 0-64v0z" />
<glyph unicode="&#xe615;" glyph-name="email" data-tags="ico-email" d="M832 832h-640c-106.048 0-192-85.952-192-192v-384c0-106.048 85.952-192 192-192h640c106.048 0 192 85.952 192 192v384c0 106.048-85.952 192-192 192zM879.936 681.216l-341.888-299.008c-13.824-12.288-38.016-12.288-52.16 0l-341.76 299.136c11.776 13.568 28.544 22.656 47.872 22.656h640c19.392 0 36.224-9.152 47.936-22.784zM128 614.016l175.488-153.664-175.488-175.744v329.408zM832 192h-640c-17.984 0-34.048 7.552-45.696 19.456l203.392 208.192-2.112 2.368 98.24-85.952c18.56-16.512 42.24-24.512 66.176-24.512 24 0 47.616 8.384 66.496 24.512l98.304 85.952-2.432-2.368 203.456-208.192c-11.776-11.904-27.84-19.456-45.824-19.456zM720.448 460.352l175.552 153.472v-328.704l-175.552 175.232z" />
<glyph unicode="&#xe616;" glyph-name="error" data-tags="ico-error" d="M874.048 810.048c-199.936 199.936-524.16 199.936-724.096 0s-199.936-524.16 0-724.096c199.936-199.936 524.16-199.936 724.096 0s199.936 524.16 0 724.096zM692.992 267.008c-33.344-33.344-87.36-33.344-120.64 0l-60.352 60.288-60.352-60.352c-33.344-33.344-87.36-33.344-120.64 0-33.344 33.344-33.344 87.36 0 120.704l60.352 60.352-60.352 60.352c-33.344 33.344-33.344 87.36 0 120.704s87.36 33.344 120.64 0l60.352-60.352 60.352 60.352c33.344 33.344 87.36 33.344 120.64 0 33.344-33.344 33.344-87.36 0-120.704l-60.288-60.352 60.352-60.352c33.28-33.344 33.28-87.36-0.064-120.64z" />
<glyph unicode="&#xe617;" glyph-name="export" data-tags="ico-export" d="M712 552c-233.984 0-416-52.032-520-312 156.032 129.984 312 156.032 520 104v-156.032l312 260.032-312 260.032v-156.032zM918.656 234.688l-80-57.728c-4.16-3.008-6.656-7.872-6.656-12.992v-115.968h-720v496h175.36c4.224 0 8.32 1.664 11.328 4.672l80 80c10.048 10.112 2.944 27.328-11.328 27.328h-271.36c-52.8 0-96-43.2-96-96v-528c0-52.8 43.2-96 96-96h752c52.8 0 96 43.2 96 96v189.696c0 13.056-14.784 20.608-25.344 12.992z" />
<glyph unicode="&#xe618;" glyph-name="feed" data-tags="ico-feed" d="M832 960h-640c-106.048 0-192-85.952-192-192v-640c0-106.048 85.952-192 192-192h640c106.048 0 192 85.952 192 192v640c0 106.048-85.952 192-192 192zM319.68 124.16h-0.128c-17.024-16.896-40.256-27.264-66.112-27.264s-49.024 10.368-66.048 27.328v0c-16.896 16.896-27.392 40-27.392 65.728s10.496 48.896 27.392 65.92v-0.064c17.024 16.96 40.192 27.392 66.048 27.392s49.088-10.432 66.112-27.392v0c17.024-17.024 27.392-40.128 27.52-65.856-0.064-25.728-10.432-48.768-27.392-65.792zM555.072 96h-7.424c-31.104 0.128-57.408 22.656-62.4 53.376-11.008 67.968-42.88 130.688-92.288 180.032-49.344 49.472-111.872 81.408-179.52 92.416-30.784 5.056-53.376 31.424-53.376 62.592v6.72c0 38.784 34.432 69.824 72.768 63.744 98.944-15.68 187.52-62.656 255.36-130.624 67.968-67.968 114.944-156.672 130.624-255.744 6.080-38.272-25.024-72.64-63.744-72.512zM796.416 96h-6.72c-32.32 0-60.032 24.128-63.232 56.32-26.688 269.248-241.216 484.032-510.272 510.592-32 3.136-55.872 30.976-55.872 63.168v6.336c0 37.888 32.896 67.84 70.592 64.064 165.888-16.64 314.752-91.136 426.624-203.008 111.808-111.872 186.24-260.928 202.88-426.816 3.84-37.76-26.112-70.656-64-70.656z" />
<glyph unicode="&#xe619;" glyph-name="finance" data-tags="ico-finance" d="M883.648 704h-627.648c-35.328 0-64 60.672-64 96s28.672 96 64 96h704c35.328 0 35.328 64 0 64h-819.648c-77.184 0-140.352-63.168-140.352-140.352v-743.296c0-77.184 63.168-140.352 140.352-140.352h743.296c77.184 0 140.352 63.168 140.352 140.352v487.296c0 77.184-63.168 140.352-140.352 140.352zM768 224c-52.992 0-96 43.008-96 96s43.008 96 96 96 96-43.008 96-96c0-52.992-43.008-96-96-96zM256 832h704v-64h-704v64z" />
<glyph unicode="&#xe61a;" glyph-name="folder-charts" data-tags="ico-folder-charts" d="M744.384 800h-232.384l-69.632 129.28c-11.456 19.072-32.064 30.72-54.336 30.72h-121.344c-141.184 0-256.448-109.76-265.792-248.576-0.512-4.032-0.896-8.064-0.896-12.16v-483.584c0-154.496 125.184-279.68 279.616-279.68h464.768c154.432 0 279.616 125.184 279.616 279.616v294.144c0 154.432-125.184 290.24-279.616 290.24zM384 160c0-17.664-14.336-32-32-32h-64c-17.664 0-32 14.336-32 32v448c0 17.664 14.336 32 32 32h64c17.664 0 32-14.336 32-32v-448zM576 160c0-17.664-14.336-32-32-32h-64c-17.664 0-32 14.336-32 32v320c0 17.664 14.336 32 32 32h64c17.664 0 32-14.336 32-32v-320zM768 160c0-17.664-14.336-32-32-32h-64c-17.664 0-32 14.336-32 32v192c0 17.664 14.336 32 32 32h64c17.664 0 32-14.336 32-32v-192z" />
<glyph unicode="&#xe61b;" glyph-name="folder" data-tags="ico-folder" d="M746.752 800h-234.752l-88.128 160h-157.184c-147.328 0-266.688-119.36-266.688-266.688h0.384c0-1.344-0.384-2.688-0.384-4.096v-486.592c0-147.264 119.36-266.624 266.688-266.624h490.688c147.264 0 266.624 119.36 266.624 266.688v320.064c0 153.088-124.16 277.248-277.248 277.248z" />
<glyph unicode="&#xe61c;" glyph-name="fullscreen" data-tags="ico-fullscreen" d="M752.96 616.512l168.512 168.448v-80.96c0-28.544 23.040-51.264 51.264-51.264s51.264 22.72 51.264 51.264v256h-256c-28.288 0-51.264-23.040-51.264-51.264s22.72-51.264 51.264-51.264h81.216l-168.704-168.512c-20.032-19.968-20.032-52.48 0-72.448 19.968-20.032 52.48-20.032 72.448 0v0zM250.048-64c28.224 0 51.008 23.040 51.008 51.264 0 28.288-22.784 51.264-51.008 51.264h-75.008l168.512 168.512c19.968 19.968 19.968 52.48 0 72.512-10.048 9.984-23.040 14.976-36.288 14.976-12.992 0-26.24-4.992-36.224-14.976l-174.784-174.784v87.232c0 28.288-22.72 51.264-51.2 51.264-28.288 0-45.056-22.976-45.056-51.264v-256h250.048zM680.512 207.040l168.448-168.512h-80.96c-28.544 0-51.264-23.040-51.264-51.264s22.72-51.264 51.264-51.264h256v256c0 28.288-23.040 51.264-51.264 51.264s-51.264-22.72-51.264-51.264v-81.216l-168.512 168.704c-19.968 20.032-52.48 20.032-72.448 0-20.032-19.968-20.032-52.48 0-72.448v0zM0 709.952c0-28.224 23.040-51.008 51.264-51.008 28.288 0 51.264 22.784 51.264 51.008v75.008l168.512-168.512c19.968-19.968 52.48-19.968 72.512 0 9.984 10.048 14.976 23.040 14.976 36.288 0 12.992-4.992 26.24-14.976 36.224l-174.784 174.784h87.232c28.288 0 51.264 22.72 51.264 51.2 0 28.288-22.976 45.056-51.264 45.056h-256v-250.048z" />
<glyph unicode="&#xe61d;" glyph-name="goal" data-tags="ico-goal" d="M832 832c35.264 0 64-28.736 64-64v-640c0-35.264-28.736-64-64-64h-640c-35.264 0-64 28.736-64 64v640c0 35.264 28.736 64 64 64h640zM832 960h-640c-106.048 0-192-85.952-192-192v-640c0-106.048 85.952-192 192-192h640c106.048 0 192 85.952 192 192v640c0 106.048-85.952 192-192 192v0zM320 192v0c-35.328 0-64 28.672-64 64v384c0 35.328 28.672 64 64 64v0c35.328 0 64-28.672 64-64v-384c0-35.328-28.672-64-64-64zM723.712 640h-248.32c-15.104 0-27.392-12.288-27.392-27.392v-201.216c0-15.104 12.288-27.392 27.392-27.392h248.32c20.352 0 33.6 21.44 24.512 39.616l-38.080 76.16c-3.84 7.68-3.84 16.768 0 24.512l38.080 76.16c9.088 18.112-4.16 39.552-24.512 39.552z" />
<glyph unicode="&#xe61e;" glyph-name="help-alt" data-tags="ico-help-alt" d="M512 960c-282.752 0-512-229.248-512-512s229.248-512 512-512 512 229.248 512 512-229.248 512-512 512zM896 448c0-82.816-26.624-159.36-71.36-222.144l-69.376 69.376c27.968 44.352 44.736 96.448 44.736 152.768s-16.768 108.416-44.736 152.768l69.376 69.376c44.736-62.784 71.36-139.328 71.36-222.144zM199.36 225.856c-44.736 62.784-71.36 139.328-71.36 222.144s26.624 159.36 71.36 222.144l69.376-69.376c-27.968-44.352-44.736-96.448-44.736-152.768s16.768-108.416 44.736-152.768l-69.376-69.376zM310.4 448c0 111.168 90.432 201.6 201.6 201.6s201.6-90.432 201.6-201.6c0-111.168-90.432-201.6-201.6-201.6s-201.6 90.432-201.6 201.6zM734.144 760.64l-69.376-69.376c-44.352 27.968-96.448 44.736-152.768 44.736s-108.416-16.768-152.768-44.736l-69.376 69.376c62.784 44.736 139.328 71.36 222.144 71.36s159.36-26.624 222.144-71.36zM289.856 135.36l69.376 69.376c44.352-27.968 96.448-44.736 152.768-44.736s108.416 16.768 152.768 44.736l69.376-69.376c-62.784-44.736-139.328-71.36-222.144-71.36s-159.36 26.624-222.144 71.36z" />
<glyph unicode="&#xe61f;" glyph-name="help" data-tags="ico-help" d="M512 960c-282.752 0-512-229.248-512-512s229.248-512 512-512 512 229.248 512 512-229.248 512-512 512zM534.272 170.112h-94.4v90.56h94.4v-90.56zM534.272 357.44v-29.952h-94.4v36.864c0 111.296 126.656 128.96 126.656 208 0 36.032-32.256 63.68-74.432 63.68-43.776 0-82.112-32.192-82.112-32.192l-53.76 66.752c0 0 52.992 55.232 144.32 55.232 86.72 0 167.296-53.696 167.296-144.256 0-126.656-133.568-141.248-133.568-224.128z" />
<glyph unicode="&#xe620;" glyph-name="code" data-tags="ico-code" d="M832 832c35.264 0 64-28.736 64-64v-640c0-35.264-28.736-64-64-64h-640c-35.264 0-64 28.736-64 64v640c0 35.264 28.736 64 64 64h640zM832 960h-640c-106.048 0-192-85.952-192-192v-640c0-106.048 85.952-192 192-192h640c106.048 0 192 85.952 192 192v640c0 106.048-85.952 192-192 192v0zM851.072 451.904l-147.072 147.072c-18.752 18.752-49.152 18.752-67.904 0s-18.752-49.152 0-67.904l112-112-113.088-113.152c-18.752-18.752-18.752-49.152 0-67.904s49.152-18.752 67.904 0l141.44 141.44c2.24 1.6 4.736 2.496 6.784 4.48 18.688 18.816 18.688 49.216-0.064 67.968zM390.144 598.976c-18.752 18.752-49.152 18.752-67.904 0l-141.44-141.44c-2.176-1.6-4.736-2.496-6.72-4.544-18.752-18.752-18.752-49.152 0-67.904l147.072-147.072c18.752-18.752 49.152-18.752 67.904 0s18.752 49.152 0 67.904l-112 112 113.152 113.152c18.688 18.752 18.688 49.152-0.064 67.904zM512 768h64v-640h-64v640z" />
<glyph unicode="&#xe621;" glyph-name="warning" data-tags="ico-alert" d="M512 960c-282.752 0-512-229.248-512-512s229.248-512 512-512 512 229.248 512 512-229.248 512-512 512zM512 96c-52.992 0-96 43.008-96 96s43.008 96 96 96 96-43.008 96-96c0-52.992-43.008-96-96-96zM576 384c-2.24-20.736-44.8-32-64-32s-61.76 11.264-64 32v384h128v-384z" />
<glyph unicode="&#xe622;" glyph-name="edit" data-tags="ico-edit" d="M832 832c35.264 0 64-28.736 64-64v-640c0-35.264-28.736-64-64-64h-640c-35.264 0-64 28.736-64 64v640c0 35.264 28.736 64 64 64h640zM832 960h-640c-106.048 0-192-85.952-192-192v-640c0-106.048 85.952-192 192-192h640c106.048 0 192 85.952 192 192v640c0 106.048-85.952 192-192 192v0zM192 288v-160h160l384 384-160 160zM853.312 632.96c14.208 14.208 14.208 35.584 0 49.792l-92.352 106.688c-14.208 14.016-35.584 14.016-49.792 0l-63.872-64.064 145.664-160 60.352 67.584z" />
<glyph unicode="&#xe623;" glyph-name="image" data-tags="ico-image" d="M781.568 254.4l-125.76 239.424c-14.656 27.968-53.76 30.464-71.936 4.608l-93.632-133.376c-15.744-22.4-48.32-24.128-66.304-3.52l-44.16 50.496c-20.16 23.040-57.408 17.6-70.144-10.24l-68.16-149.44c-12.736-27.968 7.68-59.712 38.4-59.712h464.384c31.68-0.064 52.032 33.664 37.312 61.76zM462.976 609.792c0-51.712-41.92-93.632-93.632-93.632s-93.632 41.92-93.632 93.632c0 51.712 41.92 93.632 93.632 93.632s93.632-41.92 93.632-93.632zM832 832c35.264 0 64-28.736 64-64v-640c0-35.264-28.736-64-64-64h-640c-35.264 0-64 28.736-64 64v640c0 35.264 28.736 64 64 64h640zM832 960h-640c-106.048 0-192-85.952-192-192v-640c0-106.048 85.952-192 192-192h640c106.048 0 192 85.952 192 192v640c0 106.048-85.952 192-192 192v0z" />
<glyph unicode="&#xe624;" glyph-name="info" data-tags="ico-info" d="M512 832c211.712 0 384-172.288 384-384s-172.288-384-384-384-384 172.288-384 384 172.288 384 384 384zM512 960c-282.752 0-512-229.248-512-512s229.248-512 512-512 512 229.248 512 512-229.248 512-512 512v0zM576 640c0-35.346-28.654-64-64-64s-64 28.654-64 64c0 35.346 28.654 64 64 64s64-28.654 64-64zM576 256h-128v192c0 35.328 28.672 64 64 64v0c35.328 0 64-28.672 64-64v-192zM608 192h-192c-17.664 0-32 14.336-32 32v0c0 17.664 14.336 32 32 32h192c17.664 0 32-14.336 32-32v0c0-17.664-14.336-32-32-32z" />
<glyph unicode="&#xe625;" glyph-name="insights" data-tags="ico-insights" d="M879.936 594.752c0 203.2-164.736 367.936-367.936 367.936s-367.936-164.736-367.936-367.936c0-143.168 81.92-266.944 201.28-327.744l8.64-103.936h316.096l8.64 103.936c119.36 60.864 201.216 184.64 201.216 327.744zM512-61.248c70.4 0 130.304 47.488 148.288 113.216h-296.576c17.92-65.728 77.888-113.216 148.288-113.216z" />
<glyph unicode="&#xe626;" glyph-name="locked-2" data-tags="ico-locked-2" d="M748.736 523.328v113.536c0 130.752-105.984 236.736-236.736 236.736s-236.8-105.984-236.8-236.736v-113.472c-62.848-13.248-110.464-69.312-110.464-135.936v-312.512c0-76.416 62.528-138.88 138.88-138.88h416.704c76.416 0 138.88 62.528 138.88 138.88v312.512c0.064 66.624-47.552 122.688-110.464 135.872zM512 769.408c73.088 0 132.608-59.456 132.608-132.608v-110.464h-265.216v110.528c0 73.088 59.52 132.544 132.608 132.544zM553.664 204.8v-29.184c0-22.912-18.752-41.664-41.664-41.664s-41.664 18.752-41.664 41.664v29.184c-16.512 12.672-27.776 31.744-27.776 54.144 0 38.336 31.104 69.44 69.44 69.44s69.44-31.104 69.44-69.44c0-22.4-11.264-41.408-27.776-54.144zM576 991.488c0-35.629-28.654-64.512-64-64.512s-64 28.883-64 64.512c0 35.629 28.654 64.512 64 64.512s64-28.883 64-64.512zM800 927.040c0-35.629-28.654-64.512-64-64.512s-64 28.883-64 64.512c0 35.629 28.654 64.512 64 64.512s64-28.883 64-64.512zM352 927.040c0-35.629-28.654-64.512-64-64.512s-64 28.883-64 64.512c0 35.629 28.654 64.512 64 64.512s64-28.883 64-64.512zM960 765.824c0-35.629-28.654-64.512-64-64.512s-64 28.883-64 64.512c0 35.629 28.654 64.512 64 64.512s64-28.883 64-64.512zM224 765.824c0-35.629-28.654-64.512-64-64.512s-64 28.883-64 64.512c0 35.629 28.654 64.512 64 64.512s64-28.883 64-64.512zM1024 576.512c0-35.629-28.654-64.512-64-64.512s-64 28.883-64 64.512c0 35.629 28.654 64.512 64 64.512s64-28.883 64-64.512zM128 576.512c0-35.629-28.654-64.512-64-64.512s-64 28.883-64 64.512c0 35.629 28.654 64.512 64 64.512s64-28.883 64-64.512z" />
<glyph unicode="&#xe627;" glyph-name="locked-3" data-tags="ico-locked" d="M769.856 577.472v123.968c0 142.784-115.776 258.56-258.56 258.56s-258.56-115.776-258.56-258.56v-123.968c-68.736-14.464-120.768-75.648-120.768-148.416v-341.312c0-83.456 68.288-151.68 151.68-151.68h455.104c83.456 0 151.68 68.288 151.68 151.68v341.312c0.064 72.768-51.904 134.016-120.576 148.416zM511.232 846.208c79.872 0 144.832-64.96 144.832-144.832v-120.64h-289.6v120.704c0 79.808 64.96 144.768 144.768 144.768zM556.8 229.568v-31.936c0-25.024-20.48-45.504-45.504-45.504s-45.504 20.48-45.504 45.504v31.936c-17.984 13.888-30.336 34.624-30.336 59.136 0 41.92 33.984 75.84 75.84 75.84 41.92 0 75.84-33.984 75.84-75.84 0-24.448-12.352-45.248-30.336-59.136z" />
<glyph unicode="&#xe628;" glyph-name="locked" data-tags="ico-locked-3" d="M769.856 577.472v123.968c0 142.784-115.776 258.56-258.56 258.56s-258.56-115.776-258.56-258.56v-123.968c-68.736-14.464-120.768-75.648-120.768-148.416v-341.312c0-83.456 68.288-151.68 151.68-151.68h455.104c83.456 0 151.68 68.288 151.68 151.68v341.312c0.064 72.768-51.904 134.016-120.576 148.416zM511.232 846.208c79.872 0 144.832-64.96 144.832-144.832v-120.64h-289.6v120.704c0 79.808 64.96 144.768 144.768 144.768zM556.8 229.568v-31.936c0-25.024-20.48-45.504-45.504-45.504s-45.504 20.48-45.504 45.504v31.936c-17.984 13.888-30.336 34.624-30.336 59.136 0 41.92 33.984 75.84 75.84 75.84 41.92 0 75.84-33.984 75.84-75.84 0-24.448-12.352-45.248-30.336-59.136z" />
<glyph unicode="&#xe629;" glyph-name="locked-4" data-tags="ico-locked-4" d="M512 960c-282.752 0-512-229.248-512-512s229.248-512 512-512 512 229.248 512 512-229.248 512-512 512zM624.192 303.424c7.808-23.296-9.6-47.424-34.176-47.424h-156.032c-24.576 0-41.984 24.128-34.176 47.424l35.52 106.624c-30.976 23.36-51.328 60.16-51.328 101.952 0 70.72 57.344 128 128 128s128-57.28 128-128c0-41.792-20.352-78.592-51.328-101.952l35.52-106.624z" />
<glyph unicode="&#xe62a;" glyph-name="maximise" data-tags="ico-maximise" d="M752.96 616.512l168.512 168.448v-80.96c0-28.544 23.040-51.264 51.264-51.264s51.264 22.72 51.264 51.264v256h-256c-28.288 0-51.264-23.040-51.264-51.264s22.72-51.264 51.264-51.264h81.216l-168.704-168.512c-20.032-19.968-20.032-52.48 0-72.448 19.968-20.032 52.48-20.032 72.448 0v0zM250.048-64c28.224 0 51.008 23.040 51.008 51.264 0 28.288-22.784 51.264-51.008 51.264h-75.008l168.512 168.512c19.968 19.968 19.968 52.48 0 72.512-10.048 9.984-23.040 14.976-36.288 14.976-12.992 0-26.24-4.992-36.224-14.976l-174.784-174.784v87.232c0 28.288-22.72 51.264-51.2 51.264-28.288 0-45.056-22.976-45.056-51.264v-256h250.048zM768 384v-128c0-35.328-28.672-64-64-64h-128c-35.328 0-64-28.672-64-64v0c0-35.328 28.672-64 64-64h128c106.048 0 192 85.952 192 192v128c0 35.328-28.672 64-64 64v0c-35.328 0-64-28.672-64-64zM256 512v128c0 35.328 28.672 64 64 64h128c35.328 0 64 28.672 64 64v0c0 35.328-28.672 64-64 64h-128c-106.048 0-192-85.952-192-192v-128c0-35.328 28.672-64 64-64v0c35.328 0 64 28.672 64 64z" />
<glyph unicode="&#xe62b;" glyph-name="minimise" data-tags="ico-minimise" d="M0 32v0c0 52.8 43.2 96 96 96h832c52.8 0 96-43.2 96-96v0c0-52.8-43.2-96-96-96h-832c-52.8 0-96 43.2-96 96z" />
<glyph unicode="&#xe62c;" glyph-name="minus" data-tags="ico-minus" d="M512 960c-282.752 0-512-229.248-512-512s229.248-512 512-512 512 229.248 512 512-229.248 512-512 512zM682.688 362.688h-341.376c-47.104 0-85.312 38.208-85.312 85.312s38.208 85.312 85.312 85.312h341.312c47.168 0 85.376-38.208 85.376-85.312s-38.208-85.312-85.312-85.312z" />
<glyph unicode="&#xe62d;" glyph-name="newtab" data-tags="ico-newtab" d="M832 960h-640c-106.048 0-192-85.952-192-192v-640c0-106.048 85.952-192 192-192h640c106.048 0 192 85.952 192 192v640c0 106.048-85.952 192-192 192zM832 64h-640c-35.264 0-64 28.736-64 64v640c0 35.264 28.736 64 64 64h256v-256h448v-448c0-35.264-28.736-64-64-64z" />
<glyph unicode="&#xe62e;" glyph-name="ok" data-tags="ico-ok" d="M988.352 635.712l-538.944-485.056c-20.544-18.496-46.336-27.712-72.128-27.712-27.712 0-55.296 10.624-76.224 31.616l-269.504 269.504c-42.112 42.112-42.112 110.336 0 152.448s110.336 42.112 152.448 0l197.184-197.184 462.976 416.64c44.288 39.808 112.32 36.416 152.192-8 39.808-44.224 36.224-112.448-8-152.256z" />
<glyph unicode="&#xe62f;" glyph-name="open-source" data-tags="ico-open-source" d="M450.496 956.416c-225.024-26.24-410.496-204.48-444.416-428.48-31.296-206.784 61.312-394.24 214.656-500.416 31.808-22.016 76.096-9.856 93.376 24.768l86.144 172.288c13.184 26.432 8.96 59.648-13.44 78.912-54.336 46.592-82.496 122.624-57.792 203.904 17.536 57.728 64 105.024 121.6 123.008 131.84 41.28 253.376-56.64 253.376-182.4 0-58.368-26.432-110.272-67.712-145.344-21.888-18.56-26.176-50.944-13.312-76.608l86.848-173.76c17.344-34.752 61.824-46.72 93.76-24.576 133.12 92.352 220.416 245.952 220.416 420.288 0 303.040-263.232 544.576-573.504 508.416z" />
<glyph unicode="&#xe630;" glyph-name="add, plus" data-tags="ico-add" d="M512 960c-282.752 0-512-229.248-512-512s229.248-512 512-512 512 229.248 512 512-229.248 512-512 512zM682.688 362.688h-85.376v-85.312c0-47.168-38.208-85.376-85.312-85.376s-85.312 38.208-85.312 85.312v85.376h-85.376c-47.104 0-85.312 38.208-85.312 85.312s38.208 85.312 85.312 85.312h85.312v85.376c0.064 47.104 38.272 85.312 85.376 85.312s85.312-38.208 85.312-85.312v-85.312h85.312c47.168-0.064 85.376-38.272 85.376-85.376s-38.208-85.312-85.312-85.312z" />
<glyph unicode="&#xe631;" glyph-name="puzzle" data-tags="ico-puzzle" d="M825.664 590.464c-7.68 7.68-4.544 20.544 5.76 23.936 30.592 9.984 58.24 31.040 76.352 64.512 21.76 40.192 20.864 91.136-2.752 130.304-47.36 78.592-150.912 87.68-211.328 27.264-13.312-13.312-23.040-28.672-29.44-45.12-5.248-13.376-21.76-17.728-31.872-7.616l-176.256 176.256-100.736-100.672c-17.472-17.536-19.2-43.84-7.872-65.792 26.112-50.56 17.92-114.24-24.448-156.608s-106.048-50.56-156.608-24.448c-21.952 11.328-48.256 9.6-65.792-7.872v0l-100.672-100.736 176.256-176.192c10.176-10.176 5.76-26.688-7.616-31.872-16.448-6.4-31.808-16.128-45.12-29.44-60.352-60.416-51.264-163.968 27.264-211.328 39.168-23.616 90.048-24.512 130.304-2.752 33.472 18.112 54.528 45.76 64.512 76.352 3.392 10.304 16.256 13.44 23.936 5.76l181.632-181.632 100.672 100.672c17.472 17.472 19.2 43.776 7.872 65.792-26.048 50.56-17.92 114.24 24.448 156.608s106.048 50.56 156.608 24.448c22.016-11.328 48.256-9.6 65.792 7.872v0l100.672 100.672-181.568 181.632z" />
<glyph unicode="&#xe632;" glyph-name="refresh" data-tags="ico-refresh" d="M507.84 959.744h1.984c1.024 0.384 1.472 0.192 2.24 0.192 132.48 0 261.312-52.736 356.608-145.024l79.68 80.768c20.16 20.416 54.976 6.144 54.976-22.528v-263.168c0-35.328-28.672-64-64-64l-257.6 1.6c-27.904 0.192-41.984 33.728-22.592 53.76l79.68 82.112c-61.44 59.2-141.312 91.52-229.184 91.52-179.072-0.832-324.864-147.584-324.864-329.536 1.28-160.576 119.552-294.4 275.328-320.064 31.296-5.184 54.592-31.36 54.464-63.040l-0.256-50.176c-0.192-46.144-34.56-76.48-72.832-70.976-246.784 35.456-439.808 248.064-441.472 506.88 0 279.872 227.52 509.248 507.84 511.68v0z" />
<glyph unicode="&#xe633;" glyph-name="reload" data-tags="ico-reload" d="M268.288 680.832c113.024 113.152 285.888 129.28 416.576 49.28-44.288-43.776-95.296-94.976-95.296-94.976-35.84-42.88 4.288-67.648 24.768-66.944h289.856c35.328 0 64 28.672 64 64v287.296c1.536 29.888-31.424 59.072-65.6 25.6 0 0-56.32-54.912-95.104-93.376-199.040 145.216-479.424 128.768-659.2-50.88-87.168-87.104-135.552-197.824-146.048-311.488-3.52-37.504 26.56-69.824 64.192-69.824h41.728c33.152 0 59.84 25.344 63.36 58.304 7.808 74.112 39.872 146.112 96.768 203.008v0zM895.296 476.544c-33.152 0-59.84-25.344-63.36-58.304-7.872-74.24-39.936-146.24-96.832-203.136-113.152-112.96-285.888-129.152-416.576-49.28 44.288 43.776 95.296 94.912 95.296 94.912 35.712 42.944-4.48 67.648-24.768 66.944h-289.92c-35.2 0-64-28.8-64-64v-287.104c-1.344-30.016 31.616-59.072 65.6-25.6 0 0 56.32 54.784 95.296 93.376 198.976-145.472 479.36-128.96 658.944 50.816 87.104 86.976 135.616 197.76 146.24 311.488 3.52 37.44-26.624 69.824-64.256 69.824h-41.664z" />
<glyph unicode="&#xe634;" glyph-name="search" data-tags="ico-search" d="M448 832c176.448 0 320-143.552 320-320s-143.552-320-320-320-320 143.552-320 320 143.552 320 320 320zM448 960c-247.424 0-448-200.576-448-448s200.576-448 448-448 448 200.576 448 448-200.576 448-448 448v0zM640 192l229.504-229.504c35.328-35.328 92.672-35.328 128 0v0c35.328 35.328 35.328 92.672 0 128l-229.504 229.504-128-128z" />
<glyph unicode="&#xe635;" glyph-name="users, segment" data-tags="ico-users" d="M640 576c0-84.736-43.264-192-128-192s-128 107.264-128 192 43.264 160 128 160 128-75.264 128-160zM768 64c16.576 0 64 10.688 64 10.688 0 0.128 0 0.256 0 0.32 0 135.36-143.296 308.992-320 308.992s-320-173.632-320-308.928c0-0.128 0-0.256 0-0.32s47.424-10.752 64-10.752h512zM896 512c0-59.328-36.672-128-96-128s-96 68.672-96 128 36.672 128 96 128 96-68.672 96-128zM1002.432 124.928c11.584 0 21.504 10.368 21.568 23.424 0 0.064 0 0.192 0 0.256 0 94.656-100.288 235.392-224 235.392s-224-140.736-224-235.456c0-0.064 0-0.192 0-0.256 0-13.056 9.92-23.424 21.568-23.424h404.864zM426.432 124.928c11.648 0 21.568 10.304 21.568 23.36 0 0.064 0 0.192 0 0.256 0 94.72-100.288 235.456-224 235.456s-224-140.736-224-235.456c0-0.064 0-0.192 0-0.256 0-13.056 9.92-23.424 21.568-23.424h404.864zM320 512c0-59.328-36.672-128-96-128s-96 68.672-96 128 36.672 128 96 128 96-68.672 96-128z" />
<glyph unicode="&#xe636;" glyph-name="server-alt" data-tags="ico-server-alt" d="M870.336 32c-6.016 0-12.096 1.408-17.792 4.416-18.752 9.856-25.984 33.152-16.128 51.904 220.864 419.712 12.48 702.208 3.52 714.048-12.8 16.832-9.6 40.896 7.168 53.76 16.768 12.736 40.768 9.792 53.76-7.040 10.24-13.312 248.192-331.648 3.584-796.48-6.912-13.12-20.288-20.608-34.112-20.608zM144.128 32c-13.824 0-27.2 7.488-34.048 20.544-244.608 464.832-6.656 783.168 3.584 796.48 12.992 16.832 36.992 19.776 53.76 7.040 16.768-12.8 19.968-36.864 7.168-53.76-9.024-11.84-217.408-294.336 3.52-713.984 9.856-18.752 2.624-41.984-16.128-51.904-5.696-2.944-11.84-4.416-17.856-4.416zM736 256h-480c-35.328 0-64-28.672-64-64v-64c0-35.328 28.672-64 64-64h480c35.328 0 64 28.672 64 64v64c0 35.328-28.672 64-64 64zM512 128h-224v64h224v-64zM672 128c-17.664 0-32 14.336-32 32s14.336 32 32 32 32-14.336 32-32c0-17.664-14.336-32-32-32zM736 512h-480c-35.328 0-64-28.672-64-64v-64c0-35.328 28.672-64 64-64h480c35.328 0 64 28.672 64 64v64c0 35.328-28.672 64-64 64zM512 384h-224v64h224v-64zM672 384c-17.664 0-32 14.336-32 32s14.336 32 32 32 32-14.336 32-32c0-17.664-14.336-32-32-32zM736 768h-480c-35.328 0-64-28.672-64-64v-64c0-35.328 28.672-64 64-64h480c35.328 0 64 28.672 64 64v64c0 35.328-28.672 64-64 64zM512 640h-224v64h224v-64zM672 640c-17.664 0-32 14.336-32 32s14.336 32 32 32 32-14.336 32-32c0-17.664-14.336-32-32-32z" />
<glyph unicode="&#xe637;" glyph-name="server" data-tags="ico-server" d="M928 0h-224c-17.6 0-32-14.4-32-32s14.4-32 32-32h224c17.6 0 32 14.4 32 32s-14.4 32-32 32zM320 0h-224c-17.6 0-32-14.4-32-32s14.4-32 32-32h224c17.6 0 32 14.4 32 32s-14.4 32-32 32zM960 320h-896c-35.328 0-64-28.672-64-64v-128c0-35.328 28.672-64 64-64h384v-128h128v128h384c35.328 0 64 28.672 64 64v128c0 35.328-28.672 64-64 64zM320 192v-64h-224v128h224v-64zM832 128c-35.328 0-64 28.672-64 64s28.672 64 64 64 64-28.672 64-64c0-35.328-28.672-64-64-64zM960 640h-896c-35.328 0-64-28.672-64-64v-128c0-35.328 28.672-64 64-64h896c35.328 0 64 28.672 64 64v128c0 35.328-28.672 64-64 64zM320 512v-64h-224v128h224v-64zM832 448c-35.328 0-64 28.672-64 64s28.672 64 64 64 64-28.672 64-64c0-35.328-28.672-64-64-64zM960 960h-896c-35.328 0-64-28.672-64-64v-128c0-35.328 28.672-64 64-64h896c35.328 0 64 28.672 64 64v128c0 35.328-28.672 64-64 64zM320 832v-64h-224v128h224v-64zM832 768c-35.328 0-64 28.672-64 64s28.672 64 64 64 64-28.672 64-64c0-35.328-28.672-64-64-64z" />
<glyph unicode="&#xe638;" glyph-name="hide" data-tags="ico-hide" d="M801.728 692.48l94.976 94.912-45.312 45.248-112.256-112.256c-68.48 26.624-145.408 43.776-227.136 43.776-282.176 0-510.912-201.344-510.912-316.16 0-73.152 87.488-176.512 220.8-244.864l-94.528-94.528 45.248-45.248 112 112c68.544-26.56 145.536-43.52 227.392-43.52 282.176 0 510.912 200.128 510.912 316.16 0 71.744-87.616 175.616-221.184 244.48zM286.912 448c0 123.712 100.288 224 224 224 50.56 0 96.704-17.344 134.144-45.632l-68.8-68.864c-19.2 11.52-41.344 18.496-65.344 18.496-70.72 0-128-57.28-128-128 0-24 6.976-46.144 18.496-65.344l-68.864-68.864c-28.224 37.504-45.632 83.648-45.632 134.208zM510.912 224c-49.984 0-95.744 16.96-132.992 44.672l69.056 69.056c18.88-11.008 40.512-17.728 63.936-17.728 70.656 0 128 57.28 128 128 0 23.424-6.72 45.056-17.728 63.936l69.056 69.056c27.712-37.248 44.672-82.944 44.672-132.992 0-123.712-100.288-224-224-224z" />
<glyph unicode="&#xe639;" glyph-name="show" data-tags="ico-show" d="M513.088 764.16c-282.176 0-510.976-201.344-510.976-316.16 0-118.4 228.736-316.16 510.912-316.16s510.976 200.128 510.976 316.16c0 116.032-228.736 316.16-510.912 316.16zM512 224c-123.712 0-224 100.288-224 224s100.288 224 224 224 224-100.288 224-224c0-123.712-100.288-224-224-224zM640 448c0-70.692-57.308-128-128-128s-128 57.308-128 128c0 70.692 57.308 128 128 128s128-57.308 128-128z" />
<glyph unicode="&#xe63a;" glyph-name="arrow-top" data-tags="ico-arrow-top" d="M288.64 224h446.72l-224 320z" />
<glyph unicode="&#xe63b;" glyph-name="arrow-bottom" data-tags="ico-arrow-bottom" d="M735.36 544h-446.72l224-320z" />
<glyph unicode="&#xe63c;" glyph-name="star" data-tags="ico-star" d="M512 960c-282.752 0-512-229.248-512-512s229.248-512 512-512 512 229.248 512 512-229.248 512-512 512zM735.36 477.568l-85.632-83.52c-5.568-5.44-8.128-13.248-6.784-20.928l20.224-117.888c3.328-19.328-16.96-34.048-34.304-24.896l-105.856 55.68c-6.912 3.648-15.104 3.648-22.016 0l-105.856-55.68c-17.344-9.088-37.568 5.632-34.304 24.896l20.224 117.888c1.344 7.68-1.216 15.488-6.784 20.928l-85.632 83.52c-14.016 13.696-6.272 37.504 13.12 40.32l118.4 17.216c7.68 1.088 14.336 5.952 17.792 12.928l52.928 107.264c8.64 17.536 33.728 17.536 42.368 0l52.928-107.264c3.392-7.040 10.048-11.84 17.728-12.992l118.4-17.216c19.392-2.752 27.072-26.624 13.056-40.256z" />
<glyph unicode="&#xe63d;" glyph-name="success" data-tags="ico-success" d="M966.080 525.504c-54.464 16.064-75.776 81.728-41.216 126.72 49.152 63.808-15.168 152.32-91.072 125.376v0c-53.44-19.008-109.376 21.568-107.776 78.336 2.24 80.512-101.824 114.304-147.392 47.872v0c-32.064-46.848-101.184-46.848-133.248-0.064v0c-45.504 66.496-149.568 32.64-147.392-47.872 1.6-56.768-54.336-97.344-107.776-78.336v0c-75.904 27.008-140.224-61.504-91.072-125.312 34.624-44.992 13.248-110.72-41.216-126.72-77.248-22.784-77.248-132.16 0-154.944 54.464-16.064 75.776-81.728 41.216-126.72v0c-49.152-63.808 15.168-152.32 91.072-125.376v0c53.44 19.008 109.376-21.568 107.776-78.336-2.24-80.512 101.824-114.304 147.392-47.872 32.064 46.848 101.184 46.848 133.248 0 45.504-66.432 149.568-32.64 147.392 47.872-1.6 56.768 54.336 97.344 107.776 78.336v0c75.904-27.008 140.224 61.504 91.072 125.376v0c-34.624 44.992-13.248 110.72 41.216 126.72 77.248 22.72 77.248 132.16 0 154.944zM735.296 524.096l-252.608-227.392c-9.6-8.704-21.696-12.992-33.792-12.992-12.992 0-25.92 4.992-35.712 14.784l-126.4 126.4c-19.712 19.712-19.712 51.712 0 71.424s51.712 19.712 71.424 0l92.416-92.416 217.024 195.264c20.8 18.624 52.672 17.088 71.36-3.776 18.688-20.672 17.024-52.608-3.712-71.296z" />
<glyph unicode="&#xe63e;" glyph-name="table-more" data-tags="ico-table-more" d="M320 384v0c-35.328 0-64 28.672-64 64v0c0 35.328 28.672 64 64 64v0c35.328 0 64-28.672 64-64v0c0-35.328-28.672-64-64-64zM704 384h-192c-35.328 0-64 28.672-64 64v0c0 35.328 28.672 64 64 64h192c35.328 0 64-28.672 64-64v0c0-35.328-28.672-64-64-64zM320 576v0c-35.328 0-64 28.672-64 64v0c0 35.328 28.672 64 64 64v0c35.328 0 64-28.672 64-64v0c0-35.328-28.672-64-64-64zM704 576h-192c-35.328 0-64 28.672-64 64v0c0 35.328 28.672 64 64 64h192c35.328 0 64-28.672 64-64v0c0-35.328-28.672-64-64-64zM320 192v0c-35.392 0-64 28.672-64 64v0c0 35.328 28.672 64 64 64v0c35.328 0 64-28.672 64-64v0c0-35.328-28.672-64-64-64zM576 192h-64c-35.328 0-64 28.672-64 64v0c0 35.328 28.672 64 64 64h64c35.328 0 64-28.672 64-64v0c0-35.328-28.672-64-64-64zM832-64v0c-35.328 0-64 28.672-64 64v256c0 35.328 28.672 64 64 64v0c35.328 0 64-28.672 64-64v-256c0-35.328-28.672-64-64-64zM640 128v0c0 35.328 28.672 64 64 64h256c35.328 0 64-28.672 64-64v0c0-35.328-28.672-64-64-64h-256c-35.328 0-64 28.672-64 64zM832 960h-640c-106.048 0-192-85.952-192-192v-640c0-106.048 85.952-192 192-192h320c35.328 0 64 28.672 64 64v0c0 35.328-28.672 64-64 64h-320c-35.328 0-64 28.672-64 64v640c0 35.328 28.672 64 64 64h640c35.328 0 64-28.672 64-64v-320c0-35.328 28.672-64 64-64v0c35.328 0 64 28.672 64 64v320c0 106.048-85.952 192-192 192z" />
<glyph unicode="&#xe63f;" glyph-name="table" data-tags="ico-table" d="M832 832c35.264 0 64-28.736 64-64v-640c0-35.264-28.736-64-64-64h-640c-35.264 0-64 28.736-64 64v640c0 35.264 28.736 64 64 64h640zM832 960h-640c-106.048 0-192-85.952-192-192v-640c0-106.048 85.952-192 192-192h640c106.048 0 192 85.952 192 192v640c0 106.048-85.952 192-192 192v0zM320 384v0c-35.328 0-64 28.672-64 64v0c0 35.328 28.672 64 64 64v0c35.328 0 64-28.672 64-64v0c0-35.328-28.672-64-64-64zM704 384h-192c-35.328 0-64 28.672-64 64v0c0 35.328 28.672 64 64 64h192c35.328 0 64-28.672 64-64v0c0-35.328-28.672-64-64-64zM320 576v0c-35.328 0-64 28.672-64 64v0c0 35.328 28.672 64 64 64v0c35.328 0 64-28.672 64-64v0c0-35.328-28.672-64-64-64zM704 576h-192c-35.328 0-64 28.672-64 64v0c0 35.328 28.672 64 64 64h192c35.328 0 64-28.672 64-64v0c0-35.328-28.672-64-64-64zM320 192v0c-35.392 0-64 28.672-64 64v0c0 35.328 28.672 64 64 64v0c35.328 0 64-28.672 64-64v0c0-35.328-28.672-64-64-64zM704 192h-192c-35.328 0-64 28.672-64 64v0c0 35.328 28.672 64 64 64h192c35.328 0 64-28.672 64-64v0c0-35.328-28.672-64-64-64z" />
<glyph unicode="&#xe640;" glyph-name="tag-cloud" data-tags="ico-tag-cloud" d="M740.288 448.64c0 0.576 0.064 1.088 0.064 1.664 0 55.232-44.8 100.032-100.032 100.032-23.36 0-44.8-8.064-61.824-21.504-26.24 48.96-77.824 82.368-137.28 82.368-85.888 0-155.584-69.632-155.584-155.584 0-2.048 0.256-4.032 0.32-6.080-31.488-12.544-53.952-43.392-53.952-79.296v-0.128c0-46.976 38.4-85.376 85.376-85.376h389.312c46.976 0 85.376 38.4 85.376 85.376v0.128c-0.064 35.072-21.44 65.28-51.776 78.4zM832 832c35.264 0 64-28.736 64-64v-640c0-35.264-28.736-64-64-64h-640c-35.264 0-64 28.736-64 64v640c0 35.264 28.736 64 64 64h640zM832 960h-640c-106.048 0-192-85.952-192-192v-640c0-106.048 85.952-192 192-192h640c106.048 0 192 85.952 192 192v640c0 106.048-85.952 192-192 192v0z" />
<glyph unicode="&#xe641;" glyph-name="user" data-tags="ico-user" d="M605.632 375.104c0.384 3.072 1.792 5.696 1.792 8.832 0 7.296-2.368 13.888-4.16 20.608 90.304 62.784 154.176 206.656 154.176 309.952 0 135.616-109.888 245.504-245.44 245.504s-245.44-109.888-245.44-245.44c0-103.296 63.872-247.168 154.176-309.952-1.792-6.784-4.16-13.312-4.16-20.672 0-3.136 1.472-5.824 1.792-8.832-238.016-33.728-418.368-193.152-418.368-385.088 0-0.192 0-0.384 0-0.576 0.064-29.824 22.72-53.44 49.28-53.44h925.44c26.496 0 49.216 23.616 49.28 53.504 0 0.192 0 0.384 0 0.576 0 191.872-180.352 351.296-418.368 385.024z" />
<glyph unicode="&#xe642;" glyph-name="user-add" data-tags="ico-user-add" d="M615.424 568.576c0-110.144-89.28-277.504-199.424-277.504s-199.424 167.36-199.424 277.504 89.28 199.424 199.424 199.424 199.424-89.28 199.424-199.424zM792-64c21.568 0 40 19.2 40 43.456 0 0.128 0 0.32 0 0.448 0 175.872-186.24 318.4-416 318.4s-416-142.528-416-318.4c0-0.128 0-0.32 0-0.448 0.064-24.256 18.496-43.456 40-43.456h752zM832 576v0c-35.328 0-64 28.672-64 64v256c0 35.328 28.672 64 64 64v0c35.328 0 64-28.672 64-64v-256c0-35.328-28.672-64-64-64zM640 768v0c0 35.328 28.672 64 64 64h256c35.328 0 64-28.672 64-64v0c0-35.328-28.672-64-64-64h-256c-35.328 0-64 28.672-64 64z" />
<glyph unicode="&#xe644;" glyph-name="visitor-profile" data-tags="ico-visitor-profile" d="M832 768c35.264 0 64-28.736 64-64v-512c0-35.264-28.736-64-64-64h-640c-35.264 0-64 28.736-64 64v512c0 35.264 28.736 64 64 64h640zM832 896h-640c-106.048 0-192-85.952-192-192v-512c0-106.048 85.952-192 192-192h640c106.048 0 192 85.952 192 192v512c0 106.048-85.952 192-192 192v0zM570.752 581.248c0-67.776-54.976-170.752-122.752-170.752s-122.752 102.976-122.752 170.752 54.976 122.752 122.752 122.752 122.752-54.976 122.752-122.752zM679.36 192c13.248 0 24.64 11.84 24.64 26.752 0 0.064 0 0.192 0 0.256 0 108.224-114.624 195.968-256 195.968s-256-87.744-256-195.968c0-0.064 0-0.192 0-0.256 0-14.912 11.392-26.752 24.64-26.752h462.72zM800 640h-128c-17.664 0-32-14.336-32-32s14.336-32 32-32h128c17.664 0 32 14.336 32 32s-14.336 32-32 32zM800 512h-128c-17.664 0-32-14.336-32-32s14.336-32 32-32h128c17.664 0 32 14.336 32 32s-14.336 32-32 32zM800 384h-64c-17.664 0-32-14.336-32-32s14.336-32 32-32h64c17.664 0 32 14.336 32 32s-14.336 32-32 32z" />
<glyph unicode="&#xe645;" glyph-name="zoom-in" data-tags="ico-zoom-in" d="M448 832c176.448 0 320-143.552 320-320s-143.552-320-320-320-320 143.552-320 320 143.552 320 320 320zM448 960c-247.424 0-448-200.576-448-448s200.576-448 448-448 448 200.576 448 448-200.576 448-448 448v0zM640 192l229.504-229.504c35.328-35.328 92.672-35.328 128 0v0c35.328 35.328 35.328 92.672 0 128l-229.504 229.504-128-128zM448 320v0c-35.328 0-64 28.672-64 64v256c0 35.328 28.672 64 64 64v0c35.328 0 64-28.672 64-64v-256c0-35.328-28.672-64-64-64zM256 512v0c0 35.328 28.672 64 64 64h256c35.328 0 64-28.672 64-64v0c0-35.328-28.672-64-64-64h-256c-35.328 0-64 28.672-64 64z" />
<glyph unicode="&#xe646;" glyph-name="zoom-out" data-tags="ico-zoom-out" d="M448 832c176.448 0 320-143.552 320-320s-143.552-320-320-320-320 143.552-320 320 143.552 320 320 320zM448 960c-247.424 0-448-200.576-448-448s200.576-448 448-448 448 200.576 448 448-200.576 448-448 448v0zM640 192l229.504-229.504c35.328-35.328 92.672-35.328 128 0v0c35.328 35.328 35.328 92.672 0 128l-229.504 229.504-128-128zM256 512v0c0 35.328 28.672 64 64 64h256c35.328 0 64-28.672 64-64v0c0-35.328-28.672-64-64-64h-256c-35.328 0-64 28.672-64 64z" />
<glyph unicode="&#xe647;" glyph-name="sign-out" data-tags="ico-sign-out" d="M1013.184 456.256v0c0-52.992-43.008-96-96-96h-576c-52.992 0-96 43.008-96 96v0c0 52.992 43.008 96 96 96h576c52.992 0 96-43.008 96-96zM985.024 388.352v0c-37.504-37.504-98.304-37.504-135.744 0l-271.552 271.552c-37.504 37.504-37.504 98.304 0 135.744v0c37.504 37.504 98.304 37.504 135.744 0l271.552-271.552c37.504-37.44 37.504-98.24 0-135.744zM985.024 507.648v0c37.504-37.504 37.504-98.304 0-135.744l-271.552-271.552c-37.504-37.504-98.304-37.504-135.744 0v0c-37.504 37.504-37.504 98.304 0 135.744l271.552 271.552c37.504 37.504 98.304 37.504 135.744 0zM469.184 64h-277.184c-35.328 0-64 28.672-64 64v640c0 35.328 28.672 64 64 64h277.184c35.328 0 64 28.672 64 64v0c0 35.328-28.672 64-64 64h-277.184c-106.048 0-192-85.952-192-192v-640c0-106.048 85.952-192 192-192h277.184c35.328 0 64 28.672 64 64v0c0 35.328-28.672 64-64 64z" />
<glyph unicode="&#xe648;" glyph-name="sign-in" data-tags="uniE648" d="M768 456v0q0-39-28-67.5t-68-28.5h-576q-40 0-68 28t-28 68v0q0 40 28 68t68 28h576q40 0 68-28t28-68v0zM740 388v0q-28-28-68-28t-68 28l-271 272q-29 28-29 68t29 68v0q28 28 67.5 28t67.5-28l272-272q28-28 28-68t-28-68v0zM740 508v0q28-28 28-68t-28-68l-272-272q-28-28-67.5-28t-67.5 28v0q-29 28-29 68t29 68l271 272q28 28 68 28t68-28v0zM544 832h277q27 0 45.5-19t18.5-45v-640q0-26-18.5-45t-45.5-19h-277q-26 0-45-19t-19-45v0q0-26 19-45t45-19h277q80 0 136 56t56 136v640q0 80-56 136t-136 56h-277q-26 0-45-19t-19-45v0q0-26 19-45t45-19v0z" />
<glyph unicode="&#xe649;" glyph-name="menu-hamburger" data-tags="uniE649" d="M799 576h-576q-26 0-45 19t-19 45v0q0 26 19 45t45 19h576q27 0 45.5-19t18.5-45v0q0-26-18.5-45t-45.5-19v0zM799 384h-576q-26 0-45 19t-19 45v0q0 26 19 45t45 19h576q27 0 45.5-19t18.5-45v0q0-26-18.5-45t-45.5-19v0zM799 192h-576q-26 0-45 19t-19 45v0q0 26 19 45t45 19h576q27 0 45.5-19t18.5-45v0q0-26-18.5-45t-45.5-19v0z" />
<glyph unicode="&#xe64a;" glyph-name="more-horiz" data-tags="uniE64A" d="M693 416v64q0 26 18.5 45t45.5 19h64q26 0 45-19t19-45v-64q0-26-19-45t-45-19h-64q-27 0-45.5 19t-18.5 45v0zM437 416v64q0 26 18.5 45t45.5 19h64q26 0 45-19t19-45v-64q0-26-19-45t-45-19h-64q-27 0-45.5 19t-18.5 45v0zM181 416v64q0 26 18.5 45t45.5 19h64q26 0 45-19t19-45v-64q0-26-19-45t-45-19h-64q-27 0-45.5 19t-18.5 45v0z" />
<glyph unicode="&#xe64b;" glyph-name="more-verti" data-tags="uniE64B" d="M501 608h-64q-27 0-45.5 19t-18.5 45v64q0 26 18.5 45t45.5 19h64q26 0 45-19t19-45v-64q0-26-19-45t-45-19v0zM501 352h-64q-27 0-45.5 19t-18.5 45v64q0 26 18.5 45t45.5 19h64q26 0 45-19t19-45v-64q0-26-19-45t-45-19v0zM501 96h-64q-27 0-45.5 19t-18.5 45v64q0 26 18.5 45t45.5 19h64q26 0 45-19t19-45v-64q0-26-19-45t-45-19v0z" />
<glyph unicode="&#xe64c;" glyph-name="admin-administration" data-tags="uniE64C" d="M991 385v0q-16 11-24.5 27.5t-8.5 34.5v2q0 18 8.5 34.5t24.5 26.5v1q20 13 28.5 35.5t1.5 45.5q-2 7-4.5 14t-5.5 14q-8 23-28.5 36.5t-44.5 12.5v0q-20 0-37 8t-28 23q0 1-0.5 1h-0.5q-11 15-14 33.5t3 35.5v0q9 23 2 45.5t-27 37.5q-6 5-12 9.5t-13 8.5q-20 13-45 12.5t-44-15.5v0q-15-11-33.5-14t-36.5 3q-1 0-2 0.5t-2 0.5q-18 5-31 18t-19 31v0q-7 23-26 37.5t-43 15.5h-34q-24-1-43-15.5t-26-37.5v0q-6-18-19-31t-31-18q-1 0-2-0.5t-2-0.5q-17-6-36-3t-33 14h-1q-19 15-44 15.5t-45-12.5q-7-4-13-8.5t-12-9.5q-20-15-27-37.5t2-45.5v0q6-17 3-35.5t-14-33.5h-0.5t-0.5-1q-11-15-28-23t-36-8q-25 1-45.5-12.5t-28.5-36.5q-3-7-5.5-14t-4.5-14q-7-23 1.5-45.5t28.5-35.5v-1q16-10 24.5-26.5t8.5-34.5v-2q0-18-8.5-34.5t-24.5-26.5v-1q-20-13-28.5-35.5t-1.5-45.5q2-7 4.5-14t5.5-14q8-23 28.5-36.5t45.5-12.5v0q19 0 36-8t28-23q0-1 0.5-1h0.5q11-15 14-33.5t-3-35.5v0q-9-23-2-45.5t27-37.5q6-5 12-9.5t13-8.5q20-13 45-12.5t44 15.5h1q14 11 33 14t36-3q1 0 2-0.5t2-0.5q18-5 31-18t19-31v0q7-23 26-37.5t43-15.5h34q24 1 43 15.5t26 37.5v0q6 18 19 31t31 18q1 1 2 1h2q17 6 36 3t33-14h1q19-15 44-15.5t45 12.5q7 4 13 8.5t12 9.5q20 15 27 37.5t-2 45.5v0q-6 17-3 35.5t14 33.5h0.5t0.5 1q11 15 28 23t36 8v0q25-1 45.5 12.5t28.5 36.5q3 7 5.5 14t4.5 14q7 23-1.5 45.5t-28.5 35.5v0zM512 201q-53 0-99.5 19.5t-81.5 53-55 78.5-20 96 20 96 55 78.5 81.5 53 99.5 19.5 99.5-19.5 81.5-53 55-78.5 20-96-20-96-55-78.5-81.5-53-99.5-19.5v0zM608 448q0-38-28-65.5t-68-27.5-68 27.5-28 65.5 28 65.5 68 27.5 68-27.5 28-65.5v0z" />
<glyph unicode="&#xe64d;" glyph-name="admin-development" data-tags="uniE64D" d="M576 64h-128q-27 0-45.5 19t-18.5 45v128q0 26 18.5 45t45.5 19h128q27 0 45.5-19t18.5-45v-128q0-26-18.5-45t-45.5-19v0zM576 576h-128q-26 0-45 19t-19 45v128q0 26 19 45t45 19h128q26 0 45-19t19-45v-128q0-26-19-45t-45-19v0zM256 64h-128q-26 0-45 19t-19 45v128q0 26 19 45t45 19h128q27 0 45.5-19t18.5-45v-128q0-26-18.5-45t-45.5-19v0zM896 64h-128q-27 0-45.5 19t-18.5 45v128q0 26 18.5 45t45.5 19h128q27 0 45.5-19t18.5-45v-128q0-26-18.5-45t-45.5-19v0zM896 491q0 13-9.5 17t-22.5 4h-352v171q0 13-9.5 22.5t-22.5 9.5-22.5-9.5-9.5-22.5v-171h-288q-13 0-22.5-4t-9.5-17v-192q0-14 9.5-23t22.5-9 22.5 9 9.5 23v149h256v-149q0-14 9.5-23t22.5-9 22.5 9 9.5 23v149h320v-171q0-13 9.5-22.5t22.5-9.5 22.5 9.5 9.5 22.5v214z" />
<glyph unicode="&#xe64e;" glyph-name="admin-diagnostic" data-tags="uniE64E" d="M876 836q-112 0-180.5 17.5t-106.5 39-50.5 39.5-12.5 19q-2 4-5.5 6.5t-8.5 2.5v0q-5 0-8.5-2.5t-5.5-6.5q0-1-13-19t-50.5-39.5-106-39-180.5-17.5q-7 0-11-4.5t-4-10.5v-509q0-79 56-146t124.5-117 127.5-79.5l65-32.5q1 0 2.5-0.5t3.5-0.5 3.5 0.5 2.5 0.5l65 32.5t127.5 79.5 124.5 117.5 56 145.5v509q0 6-4 10.5t-11 4.5v0 0zM809 341q0-61-44-113.5t-97.5-92-100-62.5-50.5-25q-1 0-2.5-0.5t-2.5-0.5-2.5 0.5-2.5 0.5q-4 2-50.5 25t-100 62.5-97.5 92-44 113.5v399q0 5 3.5 8.5t8.5 3.5q175 0 224.5 44.5l49.5 44.5q1 4 4 6t7 2v0q4 0 7-2t4-6l49-44.5t225-44.5q5 0 8.5-3.5t3.5-8.5v-399zM730 484l-247-222q-7-6-15.5-9.5t-17.5-3.5-18 4-16 11l-123 123q-15 14-15 34.5t15 34.5q14 15 34.5 15t34.5-15l90-90 212 191q15 13 35.5 12t33.5-16q14-15 13-35.5t-16-33.5v0z" />
<glyph unicode="&#xe64f;" glyph-name="admin-platform" data-tags="uniE64F" d="M960 960h-896q-26 0-45-19t-19-45v-640q0-26 19-45t45-19h320l-64-128h-33q-13 0-22-9t-9-22v-2q0-13 9-22t22-9h450q13 0 22 9t9 22v2q0 13-9 22t-22 9h-33l-64 128h320q26 0 45 19t19 45v640q0 26-19 45t-45 19v0zM960 384h-896v512h896v-512z" />
<glyph unicode="&#xe650;" glyph-name="admin-settings" data-tags="uniE650" d="M97 710h108q10-42 45-69.5t79-27.5q45 0 79.5 27.5t45.5 69.5h473q14 0 23.5 9.5t9.5 23.5q0 13-9.5 22.5t-23.5 9.5h-473q-11 42-45.5 69.5t-79.5 27.5-79.5-27.5-45.5-69.5h-107q-14 0-23.5-9.5t-9.5-22.5q0-14 9.5-23.5t23.5-9.5v0 0zM329 806q27 0 45.5-18.5t18.5-45.5q0-26-18.5-44.5t-45.5-18.5q-26 0-44.5 18.5t-18.5 44.5q0 27 18.5 45.5t44.5 18.5v0 0zM927 481h-155q-10 41-45 68.5t-79 27.5q-45 0-79.5-27.5t-45.5-68.5h-426q-14 0-23.5-9.5t-9.5-23.5 9.5-23.5 23.5-9.5h426q11-41 45.5-68.5t79.5-27.5q44 0 79 27.5t45 68.5h155q14 0 23.5 9.5t9.5 23.5-9.5 23.5-23.5 9.5v0 0zM648 385q-27 0-45.5 18.5t-18.5 44.5 18.5 44.5 45.5 18.5q26 0 44.5-18.5t18.5-44.5-18.5-44.5-44.5-18.5v0 0zM927 186h-473q-11 42-45.5 69.5t-79.5 27.5-79.5-27.5-45.5-69.5h-107q-14 0-23.5-9.5t-9.5-23.5q0-13 9.5-22.5t23.5-9.5h108q10-42 45-69.5t79-27.5q45 0 79.5 27.5t45.5 69.5h473q14 0 23.5 9.5t9.5 22.5q0 14-9.5 23.5t-23.5 9.5v0 0zM329 90q-26 0-44.5 18.5t-18.5 44.5q0 27 18.5 45.5t44.5 18.5q27 0 45.5-18.5t18.5-45.5q0-26-18.5-44.5t-45.5-18.5v0 0z" />
<glyph unicode="&#xe651;" glyph-name="reporting-actions" data-tags="uniE651" d="M803 515q0 52-16.5 98.5t-46.5 83.5-71 63-90 37v32q0 27-20 47t-47 20-47-20-20-47v-32q-49-11-90-37t-71-63-46.5-83.5-16.5-98.5v-246l-90-90v-45h762v45l-90 90v246zM512 0h18q23 3 39.5 18.5t23.5 35.5q3 7 6 16.5t3 19.5h-180q0-37 26.5-63.5t63.5-26.5v0 0z" />
<glyph unicode="&#xe652;" glyph-name="reporting-dashboard" data-tags="uniE652" d="M288 608h-64q-26 0-45 19t-19 45v64q0 26 19 45t45 19h64q26 0 45-19t19-45v-64q0-26-19-45t-45-19v0zM288 352h-64q-26 0-45 19t-19 45v64q0 26 19 45t45 19h64q26 0 45-19t19-45v-64q0-26-19-45t-45-19v0zM288 96h-64q-26 0-45 19t-19 45v64q0 26 19 45t45 19h64q26 0 45-19t19-45v-64q0-26-19-45t-45-19v0zM544 608h-64q-26 0-45 19t-19 45v64q0 26 19 45t45 19h64q26 0 45-19t19-45v-64q0-26-19-45t-45-19v0zM544 352h-64q-26 0-45 19t-19 45v64q0 26 19 45t45 19h64q26 0 45-19t19-45v-64q0-26-19-45t-45-19v0zM544 96h-64q-26 0-45 19t-19 45v64q0 26 19 45t45 19h64q26 0 45-19t19-45v-64q0-26-19-45t-45-19v0zM800 608h-64q-26 0-45 19t-19 45v64q0 26 19 45t45 19h64q26 0 45-19t19-45v-64q0-26-19-45t-45-19v0zM800 352h-64q-26 0-45 19t-19 45v64q0 26 19 45t45 19h64q26 0 45-19t19-45v-64q0-26-19-45t-45-19v0zM800 96h-64q-26 0-45 19t-19 45v64q0 26 19 45t45 19h64q26 0 45-19t19-45v-64q0-26-19-45t-45-19v0z" />
<glyph unicode="&#xe653;" glyph-name="reporting-ecommerce" data-tags="uniE653" d="M961 638h-640l-32 96q-3 16-14 38t-27 26l-171 32q-24 8-45.5-2.5t-29.5-34.5q-7-23 4.5-45t35.5-29l137-43 104-457q3-15 12-26t21-17v-13q0-41 29.5-70.5t70.5-29.5q42 0 71.5 29.5t29.5 70.5v7h159q0-2-0.5-3.5t-0.5-3.5q0-41 29.5-70.5t71.5-29.5 71.5 29.5 29.5 70.5v4t-1 4q19 2 33.5 15t18.5 33l96 314q2 13-12.5 59t-50.5 46v0zM416 114q-20 0-34.5 14.5t-14.5 34.5q0 21 14.5 35t34.5 14q21 0 35-14t14-35q0-20-14-34.5t-35-14.5v0 0zM776 114q-20 0-34.5 14.5t-14.5 34.5q0 21 14.5 35t34.5 14 34.5-14 14.5-35q0-20-14.5-34.5t-34.5-14.5v0 0zM833 319h-448q-15 0-15 32t15 32h448q15 0 20.5-32t-20.5-32v0zM897 447h-512q-15 0-15 32t15 32h512q15 0 15-32t-15-32v0 0z" />
<glyph unicode="&#xe654;" glyph-name="reporting-goal" data-tags="uniE654" d="M512 960q-106 0-199.5-40t-163-109.5-109.5-163-40-199.5 40-199.5 109.5-163 163-109.5 199.5-40 199.5 40 163 109.5 109.5 163 40 199.5-40 199.5-109.5 163-163 109.5-199.5 40v0zM512 32q-86 0-162 32.5t-132.5 89-89 132.5-32.5 162 32.5 162 89 132.5 132.5 89 162 32.5 162-32.5 132.5-89 89-132.5 32.5-162-32.5-162-89-132.5-132.5-89-162-32.5v0zM512 768q-66 0-124.5-25t-102-68.5-68.5-102-25-124.5 25-124.5 68.5-102 102-68.5 124.5-25 124.5 25 102 68.5 68.5 102 25 124.5-25 124.5-68.5 102-102 68.5-124.5 25v0zM512 224q-46 0-87 17.5t-71.5 48-48 71.5-17.5 87 17.5 87 48 71.5 71.5 48 87 17.5 87-17.5 71.5-48 48-71.5 17.5-87-17.5-87-48-71.5-71.5-48-87-17.5v0zM608 448q0-40-28-68t-68-28-68 28-28 68 28 68 68 28 68-28 28-68v0z" />
<glyph unicode="&#xe655;" glyph-name="reporting-referer" data-tags="uniE655" d="M293 719q0-20-14-34t-35-14q-20 0-34 14t-14 34 14 34.5 34 14.5q21 0 35-14.5t14-34.5v0zM423 719q0-20-14-34t-34-14q-21 0-35 14t-14 34 14 34.5 35 14.5q20 0 34-14.5t14-34.5v0zM554 719q0-20-14.5-34t-34.5-14-34.5 14-14.5 34 14.5 34.5 34.5 14.5 34.5-14.5 14.5-34.5v0zM832 960h-640q-80 0-136-56t-56-136v-640q0-80 56-136t136-56h640q80 0 136 56t56 136v640q0 80-56 136t-136 56v0zM192 832h640q26 0 45-19t19-45v-128h-768v128q0 26 19 45t45 19v0zM832 64h-640q-26 0-45 19t-19 45v448h768v-448q0-26-19-45t-45-19v0z" />
<glyph unicode="&#xe656;" glyph-name="reporting-visitors" data-tags="uniE656" d="M1003 429v1l-1 1q-4 10-9.5 19.5t-11.5 17.5q-13 23-31.5 54t-37.5 62.5-37 59.5-30 45q-31 42-68.5 75t-90.5 33q-12 0-24-2t-24-6q-38-12-71-34.5t-44-69.5h-22q-11 47-44 69.5t-71 34.5q-12 4-24 6t-24 2q-53 0-90.5-33t-68.5-75q-12-17-30-45t-37-59.5-37-62.5-32-54q-6-9-11.5-18t-9.5-19l-1-1v-1q-10-22-15.5-46t-5.5-50q0-48 18.5-90.5t50-74.5 74.5-50.5 91-18.5q57 0 105 25t80 67h186q32-42 80.5-67t104.5-25q49 0 91.5 18.5t74 50.5 50 74.5 18.5 90.5q0 26-5.5 50t-15.5 46v0 0zM234 177q-65 0-110.5 46t-45.5 110q0 65 45.5 111t110.5 46 110.5-46 45.5-111q0-64-45.5-110t-110.5-46v0 0zM790 177q-65 0-110.5 46t-45.5 110q0 65 45.5 111t110.5 46 110.5-46 45.5-111q0-64-45.5-110t-110.5-46v0 0z" />
<glyph unicode="&#xe657;" glyph-name="user-manage" data-tags="uniE657" d="M695 501q5 1 9 2t8 1q11 0 20 5.5t16 12.5l202 202q18 17 18 41.5t-18 41.5l-63 64q-17 17-41.5 17t-41.5-17l-202-201q-8-8-13-17.5t-6-19.5q0-5-0.5-9t-2.5-8q-4-17-0.5-33.5t15.5-28.5l40-39q12-12 28-15t32 1v0zM206 167l-10 10-50-40-83-132 21-22 132 84 40 50-9 9 167 167-42 41-166-167zM434 630q14 52 1 105.5t-53 94.5q-41 40-94.5 53.5t-104.5-0.5l116-116-30-114-114-30-116 116q-14-52-0.5-105t53.5-94q42-42 98.5-54.5t109.5 5.5l478-478q14-14 32-21t37-7q18 0 36 7t32 21q28 28 28 68t-28 69l-481 480zM855 29q-16 0-26.5 11t-10.5 26 10.5 26 26.5 11q15 0 26-11t11-26-11-26-26-11v0 0z" />
<glyph unicode="&#xe658;" glyph-name="user-personal" data-tags="uniE658" d="M600 648q0-38-14.5-83t-39.5-83.5-58.5-64-71.5-25.5-71.5 25.5-58.5 64-39.5 83.5-14.5 83q0 76 54 130t130 54 130-54 54-130v0zM763 64q15 0 26 11.5t11 28.5v0 1q0 60-30 113.5t-82.5 93.5-122 63-149.5 23-149.5-23-122-63-82.5-93.5-30-113.5v-1q0-17 11-28.5t26-11.5h694zM944 736h-192q-20 0-34-14t-14-34 14-34 34-14h192q20 0 34 14t14 34-14 34-34 14v0zM944 544h-192q-20 0-34-14t-14-34 14-34 34-14h192q20 0 34 14t14 34-14 34-34 14v0zM944 352h-96q-20 0-34-14t-14-34 14-34 34-14h96q20 0 34 14t14 34-14 34-34 14v0z" />
<glyph unicode="&#xe659;" glyph-name="user-platform" data-tags="uniE659" d="M960 896h-896q-26 0-45-19t-19-45v-640q0-26 19-45t45-19h320l-64-128h-33q-13 0-22-9t-9-22v-2q0-13 9-22t22-9h450q13 0 22 9t9 22v2q0 13-9 22t-22 9h-33l-64 128h320q26 0 45 19t19 45v640q0 26-19 45t-45 19v0zM960 320h-896v512h896v-512z" />
<glyph unicode="&#xe85d;" glyph-name="form" data-tags="assignment" d="M742.038 585.592v92.444h-460.074v-92.444h460.074zM742.038 402.852v90.296h-460.074v-90.296h460.074zM604.444 217.962v92.444h-322.482v-92.444h322.482zM512 860.778c-25.798 0-45.148-19.348-45.148-45.148s19.348-47.298 45.148-47.298 45.148 21.498 45.148 47.298-19.348 45.148-45.148 45.148zM832.332 860.778c49.448 0 92.444-42.998 92.444-92.444v-640.666c0-49.448-42.998-92.444-92.444-92.444h-640.666c-49.448 0-92.444 42.998-92.444 92.444v640.666c0 49.448 42.998 92.444 92.444 92.444h191.34c19.348 53.748 68.796 92.444 128.992 92.444s109.644-38.698 128.992-92.444h191.34z" />
<glyph unicode="&#xe868;" glyph-name="bug" data-tags="bug_report" d="M621.89 426.667v109.89h-219.78v-109.89h219.78zM621.89 209.447v107.335h-219.78v-107.335h219.78zM949 643.887v-107.335h-115c2.555-17.89 5.11-38.335 5.11-56.22v-53.665h109.89v-109.89h-109.89v-53.665c0-17.89-2.555-35.78-5.11-53.665h115v-109.89h-153.335c-56.22-97.11-163.555-163.555-283.665-163.555s-227.445 66.445-283.665 163.555h-153.335v109.89h115c-2.555 17.89-5.11 35.78-5.11 53.665v53.665h-109.89v109.89h109.89v53.665c0 17.89 2.555 38.335 5.11 56.22h-115v107.335h153.335c25.555 43.445 58.78 79.22 99.665 107.335l-89.445 89.445 76.665 76.665 120.11-117.555c25.555 5.11 51.11 7.665 76.665 7.665s51.11-2.555 76.665-7.665l120.11 117.555 76.665-76.665-89.445-89.445c40.89-28.11 74.11-63.89 99.665-107.335h153.335z" />
<glyph unicode="&#xe88e;" glyph-name="info2" data-tags="info" d="M562.479 580.507v103.361h-100.958v-103.361h100.958zM562.479 169.465v307.681h-100.958v-307.681h100.958zM512 938.667c283.643 0 512-228.357 512-512s-228.357-512-512-512-512 228.357-512 512 228.357 512 512 512z" />
<glyph unicode="&#xe88f;" glyph-name="info_outline" data-tags="info_outline" d="M461.521 580.507v103.361h100.958v-103.361h-100.958zM512 15.625c225.953 0 411.042 185.089 411.042 411.042s-185.089 411.042-411.042 411.042-411.042-185.089-411.042-411.042 185.089-411.042 411.042-411.042zM512 938.667c283.643 0 512-228.357 512-512s-228.357-512-512-512-512 228.357-512 512 228.357 512 512 512zM461.521 169.465v307.681h100.958v-307.681h-100.958z" />
<glyph unicode="&#xe8b8;" glyph-name="settings" data-tags="settings" d="M512 246.385c98.554 0 180.282 81.728 180.282 180.282s-81.728 180.282-180.282 180.282-180.282-81.728-180.282-180.282 81.728-180.282 180.282-180.282zM894.197 376.188l108.169-84.131c9.615-7.211 12.019-21.634 4.808-33.653l-103.361-177.878c-7.211-12.019-19.23-14.423-31.249-9.615l-127.399 50.479c-26.441-19.23-55.286-38.46-86.535-50.479l-19.23-134.61c-2.404-12.019-12.019-21.634-24.038-21.634h-206.723c-12.019 0-21.634 9.615-24.038 21.634l-19.23 134.61c-31.249 12.019-60.094 28.845-86.535 50.479l-127.399-50.479c-12.019-4.808-24.038-2.404-31.249 9.615l-103.361 177.878c-7.211 12.019-4.808 26.441 4.808 33.653l108.169 84.131c-2.404 16.826-2.404 33.653-2.404 50.479s0 33.653 2.404 50.479l-108.169 84.131c-9.615 7.211-12.019 21.634-4.808 33.653l103.361 177.878c7.211 12.019 19.23 14.423 31.249 9.615l127.399-50.479c26.441 19.23 55.286 38.46 86.535 50.479l19.23 134.61c2.404 12.019 12.019 21.634 24.038 21.634h206.723c12.019 0 21.634-9.615 24.038-21.634l19.23-134.61c31.249-12.019 60.094-28.845 86.535-50.479l127.399 50.479c12.019 4.808 24.038 2.404 31.249-9.615l103.361-177.878c7.211-12.019 4.808-26.441-4.808-33.653l-108.169-84.131c2.404-16.826 2.404-33.653 2.404-50.479s0-33.653-2.404-50.479z" />
<glyph unicode="&#xe900;" glyph-name="segmented-visits-log" data-tags="contacts" d="M726 212.667v64c0 72-142 108-214 108s-214-36-214-108v-64h428zM512 650.667c-52 0-96-44-96-96s44-96 96-96 96 44 96 96-44 96-96 96zM854 768.667c46 0 84-40 84-86v-512c0-46-38-86-84-86h-684c-46 0-84 40-84 86v512c0 46 38 86 84 86h684zM170-85.333v86h684v-86h-684zM854 938.667v-86h-684v86h684z" />
<glyph unicode="&#xe901;" glyph-name="watch_later" data-tags="watch_later" d="M692 246.667l34 56-192 116v222h-64v-256zM512 852.667q176 0 301-125t125-301-125-301-301-125-301 125-125 301 125 301 301 125z" />
<glyph unicode="&#xe902;" glyph-name="new_releases" data-tags="new_releases" d="M554 384.667v256h-84v-256h84zM554 212.667v86h-84v-86h84zM982 426.667l-104-118 14-158-154-34-80-136-146 62-146-62-80 134-154 36 14 158-104 118 104 120-14 156 154 34 80 136 146-62 146 62 80-136 154-34-14-158z" />
<glyph unicode="&#xe903;" glyph-name="notifications_on" data-tags="notifications_on" d="M512 0.667q-36 0-61 25t-25 59h170q0-36-24-60t-60-24zM768 468.667v-212l86-86v-42h-684v42l86 86v212q0 100 51 174t141 96v30q0 26 18 45t46 19 46-19 18-45v-30q90-22 141-96t51-174zM852 490.667q-4 72-48 152t-102 122l60 60q166-128 176-334h-86zM324 764.667q-58-42-103-122t-49-152h-86q10 206 176 334z" />
<glyph unicode="&#xe922;" glyph-name="evolution" data-tags="timeline" d="M982 596.667c0-46-40-84-86-84-8 0-16 0-22 2l-152-152c2-6 4-14 4-22 0-46-40-84-86-84s-86 38-86 84c0 8 2 16 4 22l-110 110c-6-2-14-4-22-4s-16 2-22 4l-194-194c2-6 4-14 4-22 0-46-40-86-86-86s-86 40-86 86 40 84 86 84c8 0 16 0 22-2l194 194c-2 6-2 14-2 22 0 46 38 86 84 86s86-40 86-86c0-8 0-16-2-22l108-108c6 2 14 2 22 2s16 0 22-2l152 150c-2 6-4 14-4 22 0 46 40 86 86 86s86-40 86-86z" />
<glyph unicode="&#xe95e;" glyph-name="archive" data-tags="box-add, box, download, storage, inbox, archive" d="M832 896h-640l-192-192v-672c0-17.674 14.326-32 32-32h960c17.672 0 32 14.326 32 32v672l-192 192zM512 128l-320 256h192v192h256v-192h192l-320-256zM154.51 768l64 64h586.978l64-64h-714.978z" />
<glyph unicode="&#xe9a5;" glyph-name="rocket" data-tags="rocket, jet, speed, spaceship, fast" d="M704 896l-320-320h-192l-192-256c0 0 203.416 56.652 322.066 30.084l-322.066-414.084 421.902 328.144c58.838-134.654-37.902-328.144-37.902-328.144l256 192v192l320 320 64 320-320-64z" />
<glyph unicode="&#xe9a6;" glyph-name="page-performance" data-tags="meter, gauge, dashboard, speedometer, performance" d="M512 896c282.77 0 512-229.23 512-512 0-192.792-106.576-360.666-264.008-448h-495.984c-157.432 87.334-264.008 255.208-264.008 448 0 282.77 229.23 512 512 512zM801.914 94.086c77.438 77.44 120.086 180.398 120.086 289.914h-90v64h85.038c-7.014 44.998-21.39 88.146-42.564 128h-106.474v64h64.284c-9.438 11.762-19.552 23.096-30.37 33.914-46.222 46.22-101.54 80.038-161.914 99.798v-69.712h-64v85.040c-20.982 3.268-42.36 4.96-64 4.96s-43.018-1.69-64-4.96v-85.040h-64v69.712c-60.372-19.76-115.692-53.576-161.914-99.798-10.818-10.818-20.932-22.152-30.37-33.914h64.284v-64h-106.476c-21.174-39.854-35.552-83.002-42.564-128h85.040v-64h-90c0-109.516 42.648-212.474 120.086-289.914 10.71-10.71 21.924-20.728 33.56-30.086h192.354l36.572 512h54.856l36.572-512h192.354c11.636 9.358 22.852 19.378 33.56 30.086z" />
<glyph unicode="&#xe9aa;" glyph-name="lab" data-tags="lab, beta, beaker, test, experiment" d="M956.29 155.518l-316.29 527.024v213.458h32c17.6 0 32 14.4 32 32s-14.4 32-32 32h-320c-17.6 0-32-14.4-32-32s14.4-32 32-32h32v-213.458l-316.288-527.024c-72.442-120.734-16.512-219.518 124.288-219.518h640c140.8 0 196.73 98.784 124.29 219.518zM241.038 320l206.962 344.938v231.062h128v-231.062l206.964-344.938h-541.926z" />
<glyph unicode="&#xe9da;" glyph-name="heart" data-tags="heart, like, love, favorite" d="M755.188 896c-107.63 0-200.258-87.554-243.164-179-42.938 91.444-135.578 179-243.216 179-148.382 0-268.808-120.44-268.808-268.832 0-301.846 304.5-380.994 512.022-679.418 196.154 296.576 511.978 387.206 511.978 679.418 0 148.392-120.43 268.832-268.812 268.832z" />
<glyph unicode="&#xea30;" glyph-name="transition" data-tags="shuffle, random, player" d="M768 256h-101.49l-160 160 160 160h101.49v-160l224 224-224 224v-160h-128c-16.974 0-33.252-6.744-45.254-18.746l-178.746-178.744-178.746 178.746c-12 12-28.28 18.744-45.254 18.744h-192v-128h165.49l160-160-160-160h-165.49v-128h192c16.974 0 33.252 6.742 45.254 18.746l178.746 178.744 178.746-178.744c12.002-12.004 28.28-18.746 45.254-18.746h128v-160l224 224-224 224v-160z" />
<glyph unicode="&#xea3c;" glyph-name="arrow-right2" data-tags="arrow-right, right, next" d="M621.254 82.746l320 320c24.994 24.992 24.994 65.516 0 90.51l-320 320c-24.994 24.992-65.516 24.992-90.51 0-24.994-24.994-24.994-65.516 0-90.51l210.746-210.746h-613.49c-35.346 0-64-28.654-64-64s28.654-64 64-64h613.49l-210.746-210.746c-12.496-12.496-18.744-28.876-18.744-45.254s6.248-32.758 18.744-45.254c24.994-24.994 65.516-24.994 90.51 0z" />
<glyph unicode="&#xea40;" glyph-name="arrow-left2" data-tags="arrow-left, left, previous" d="M402.746 82.746l-320 320c-24.994 24.992-24.994 65.516 0 90.51l320 320c24.994 24.992 65.516 24.992 90.51 0 24.994-24.994 24.994-65.516 0-90.51l-210.746-210.746h613.49c35.346 0 64-28.654 64-64s-28.654-64-64-64h-613.49l210.746-210.746c12.496-12.496 18.744-28.876 18.744-45.254s-6.248-32.758-18.744-45.254c-24.994-24.994-65.516-24.994-90.51 0z" />
<glyph unicode="&#xea5b;" glyph-name="funnel" data-tags="filter, funnel" d="M512 960c-282.77 0-512-71.634-512-160v-96l384-384v-320c0-35.346 57.306-64 128-64 70.692 0 128 28.654 128 64v320l384 384v96c0 88.366-229.23 160-512 160zM94.384 821.176c23.944 13.658 57.582 26.62 97.278 37.488 87.944 24.076 201.708 37.336 320.338 37.336 118.628 0 232.394-13.26 320.338-37.336 39.696-10.868 73.334-23.83 97.28-37.488 15.792-9.006 24.324-16.624 28.296-21.176-3.972-4.552-12.506-12.168-28.296-21.176-23.946-13.658-57.584-26.62-97.28-37.488-87.942-24.076-201.708-37.336-320.338-37.336s-232.394 13.26-320.338 37.336c-39.696 10.868-73.334 23.83-97.278 37.488-15.792 9.008-24.324 16.624-28.298 21.176 3.974 4.552 12.506 12.168 28.298 21.176z" />
<glyph unicode="&#xea80;" glyph-name="embed" data-tags="embed, code, html, xml" horiz-adv-x="1280" d="M832 224l96-96 320 320-320 320-96-96 224-224zM448 672l-96 96-320-320 320-320 96 96-224 224zM701.298 809.481l69.468-18.944-191.987-704.026-69.468 18.944 191.987 704.026z" />
<glyph unicode="&#xeab0;" glyph-name="github" data-tags="github, brand, octacat, social" d="M512.008 947.358c-282.738 0-512.008-229.218-512.008-511.998 0-226.214 146.704-418.132 350.136-485.836 25.586-4.738 34.992 11.11 34.992 24.632 0 12.204-0.48 52.542-0.696 95.324-142.448-30.976-172.504 60.41-172.504 60.41-23.282 59.176-56.848 74.916-56.848 74.916-46.452 31.778 3.51 31.124 3.51 31.124 51.4-3.61 78.476-52.766 78.476-52.766 45.672-78.27 119.776-55.64 149.004-42.558 4.588 33.086 17.852 55.68 32.506 68.464-113.73 12.942-233.276 56.85-233.276 253.032 0 55.898 20.004 101.574 52.76 137.428-5.316 12.9-22.854 64.972 4.952 135.5 0 0 43.006 13.752 140.84-52.49 40.836 11.348 84.636 17.036 128.154 17.234 43.502-0.198 87.336-5.886 128.256-17.234 97.734 66.244 140.656 52.49 140.656 52.49 27.872-70.528 10.35-122.6 5.036-135.5 32.82-35.856 52.694-81.532 52.694-137.428 0-196.654-119.778-239.95-233.79-252.624 18.364-15.89 34.724-47.046 34.724-94.812 0-68.508-0.596-123.644-0.596-140.508 0-13.628 9.222-29.594 35.172-24.566 203.322 67.776 349.842 259.626 349.842 485.768 0 282.78-229.234 511.998-511.992 511.998z" />
<glyph unicode="&#xf08e;" glyph-name="outlink" data-tags="external-link" d="M804.571 384v-182.857c0-90.857-73.714-164.571-164.571-164.571h-475.429c-90.857 0-164.571 73.714-164.571 164.571v475.429c0 90.857 73.714 164.571 164.571 164.571h402.286c10.286 0 18.286-8 18.286-18.286v-36.571c0-10.286-8-18.286-18.286-18.286h-402.286c-50.286 0-91.429-41.143-91.429-91.429v-475.429c0-50.286 41.143-91.429 91.429-91.429h475.429c50.286 0 91.429 41.143 91.429 91.429v182.857c0 10.286 8 18.286 18.286 18.286h36.571c10.286 0 18.286-8 18.286-18.286zM1024 877.715v-292.571c0-20-16.571-36.571-36.571-36.571-9.714 0-18.857 4-25.714 10.857l-100.571 100.571-372.571-372.571c-3.429-3.429-8.571-5.714-13.143-5.714s-9.714 2.286-13.143 5.714l-65.143 65.143c-3.429 3.429-5.714 8.571-5.714 13.143s2.286 9.714 5.714 13.143l372.571 372.571-100.571 100.571c-6.857 6.857-10.857 16-10.857 25.714 0 20 16.571 36.571 36.571 36.571h292.571c20 0 36.571-16.571 36.571-36.571z" />
<glyph unicode="&#xf102;" glyph-name="arrowup" data-tags="angle-double-up" horiz-adv-x="658" d="M614.286 201.143c0-4.571-2.286-9.714-5.714-13.143l-28.571-28.571c-3.429-3.429-8-5.714-13.143-5.714-4.571 0-9.714 2.286-13.143 5.714l-224.571 224.571-224.571-224.571c-3.429-3.429-8.571-5.714-13.143-5.714s-9.714 2.286-13.143 5.714l-28.571 28.571c-3.429 3.429-5.714 8.571-5.714 13.143s2.286 9.714 5.714 13.143l266.286 266.286c3.429 3.429 8.571 5.714 13.143 5.714s9.714-2.286 13.143-5.714l266.286-266.286c3.429-3.429 5.714-8.571 5.714-13.143zM614.286 420.571c0-4.571-2.286-9.714-5.714-13.143l-28.571-28.571c-3.429-3.429-8-5.714-13.143-5.714-4.571 0-9.714 2.286-13.143 5.714l-224.571 224.571-224.571-224.571c-3.429-3.429-8.571-5.714-13.143-5.714s-9.714 2.286-13.143 5.714l-28.571 28.571c-3.429 3.429-5.714 8.571-5.714 13.143s2.286 9.714 5.714 13.143l266.286 266.286c3.429 3.429 8.571 5.714 13.143 5.714s9.714-2.286 13.143-5.714l266.286-266.286c3.429-3.429 5.714-8.571 5.714-13.143z" />
<glyph unicode="&#xf103;" glyph-name="arrowdown" data-tags="angle-double-down" horiz-adv-x="658" d="M614.286 457.143c0-4.571-2.286-9.714-5.714-13.143l-266.286-266.286c-3.429-3.429-8.571-5.714-13.143-5.714s-9.714 2.286-13.143 5.714l-266.286 266.286c-3.429 3.429-5.714 8.571-5.714 13.143s2.286 9.714 5.714 13.143l28.571 28.571c3.429 3.429 8 5.714 13.143 5.714 4.571 0 9.714-2.286 13.143-5.714l224.571-224.571 224.571 224.571c3.429 3.429 8.571 5.714 13.143 5.714s9.714-2.286 13.143-5.714l28.571-28.571c3.429-3.429 5.714-8.571 5.714-13.143zM614.286 676.571c0-4.571-2.286-9.714-5.714-13.143l-266.286-266.286c-3.429-3.429-8.571-5.714-13.143-5.714s-9.714 2.286-13.143 5.714l-266.286 266.286c-3.429 3.429-5.714 8.571-5.714 13.143s2.286 9.714 5.714 13.143l28.571 28.571c3.429 3.429 8 5.714 13.143 5.714 4.571 0 9.714-2.286 13.143-5.714l224.571-224.571 224.571 224.571c3.429 3.429 8.571 5.714 13.143 5.714s9.714-2.286 13.143-5.714l28.571-28.571c3.429-3.429 5.714-8.571 5.714-13.143z" />
<glyph unicode="&#xf147;" glyph-name="minus-square" data-tags="minus-square-o" horiz-adv-x="805" d="M658.286 457.143v-36.571c0-10.286-8-18.286-18.286-18.286h-475.429c-10.286 0-18.286 8-18.286 18.286v36.571c0 10.286 8 18.286 18.286 18.286h475.429c10.286 0 18.286-8 18.286-18.286zM731.429 201.143v475.429c0 50.286-41.143 91.429-91.429 91.429h-475.429c-50.286 0-91.429-41.143-91.429-91.429v-475.429c0-50.286 41.143-91.429 91.429-91.429h475.429c50.286 0 91.429 41.143 91.429 91.429zM804.571 676.572v-475.429c0-90.857-73.714-164.571-164.571-164.571h-475.429c-90.857 0-164.571 73.714-164.571 164.571v475.429c0 90.857 73.714 164.571 164.571 164.571h475.429c90.857 0 164.571-73.714 164.571-164.571z" />
<glyph unicode="&#xf196;" glyph-name="plus-square" data-tags="plus-square-o" horiz-adv-x="805" d="M658.286 457.143v-36.571c0-10.286-8-18.286-18.286-18.286h-201.143v-201.143c0-10.286-8-18.286-18.286-18.286h-36.571c-10.286 0-18.286 8-18.286 18.286v201.143h-201.143c-10.286 0-18.286 8-18.286 18.286v36.571c0 10.286 8 18.286 18.286 18.286h201.143v201.143c0 10.286 8 18.286 18.286 18.286h36.571c10.286 0 18.286-8 18.286-18.286v-201.143h201.143c10.286 0 18.286-8 18.286-18.286zM731.429 201.143v475.429c0 50.286-41.143 91.429-91.429 91.429h-475.429c-50.286 0-91.429-41.143-91.429-91.429v-475.429c0-50.286 41.143-91.429 91.429-91.429h475.429c50.286 0 91.429 41.143 91.429 91.429zM804.571 676.572v-475.429c0-90.857-73.714-164.571-164.571-164.571h-475.429c-90.857 0-164.571 73.714-164.571 164.571v475.429c0 90.857 73.714 164.571 164.571 164.571h475.429c90.857 0 164.571-73.714 164.571-164.571z" />
</font>
</defs>
</svg>
